<?xml version="1.0" standalone="no"?>
<!DOCTYPE svg PUBLIC "-//W3C//DTD SVG 1.1//EN" "http://www.w3.org/Graphics/SVG/1.1/DTD/svg11.dtd" >
<svg xmlns="http://www.w3.org/2000/svg">
<metadata>
This is a custom SVG webfont generated by Font Squirrel.
Copyright   : Copyright c 2003 by Bitstream Inc All Rights ReservedCopyright c 2006 by Tavmjong Bah All Rights ReservedDejaVu changes are in public domain
Foundry     : DejaVu fonts team
Foundry URL : httpdejavusourceforgenet
</metadata>
<defs>
<font id="webfontxsYM2XhJ" horiz-adv-x="1171" >
<font-face units-per-em="2048" ascent="1556" descent="-492" />
<missing-glyph horiz-adv-x="583" />
<glyph unicode=" "  horiz-adv-x="583" />
<glyph unicode="&#x09;" horiz-adv-x="583" />
<glyph unicode="&#xa0;" horiz-adv-x="583" />
<glyph unicode="!" horiz-adv-x="737" d="M279 0v254h182v-254h-182zM279 838v655h182v-655l-19 -357h-145z" />
<glyph unicode="&#x22;" horiz-adv-x="845" d="M176 938v555h154v-555h-154zM518 938v555h152v-555h-152z" />
<glyph unicode="#" horiz-adv-x="1542" d="M141 414v153h318l76 334h-289v154h323l93 415h145l-92 -415h262l94 415h143l-92 -415h281v-154h-316l-73 -334h286v-153h-321l-94 -414h-144l93 414h-265l-92 -414h-145l94 414h-285zM604 567h264l74 334h-262z" />
<glyph unicode="$" d="M154 92v180q88 -61 186 -96t192 -35v457q-200 37 -288 123q-90 86 -90 235q0 162 98 256q96 92 280 109v235h91v-233q82 -2 161 -18q80 -15 154 -43v-175q-70 41 -154 64q-98 27 -161 29v-428q205 -35 301 -125t96 -246q0 -168 -102 -266q-100 -96 -295 -113v-303h-91 v301q-95 3 -190 25q-92 20 -188 67zM319 973q0 -84 50 -133q47 -47 163 -70v410q-102 -12 -159 -66q-54 -51 -54 -141zM623 145q117 18 172 72q59 55 59 145q0 86 -57 140q-53 51 -174 76v-433z" />
<glyph unicode="%" horiz-adv-x="1748" d="M102 1114q0 182 84 295q84 111 226 111q143 0 227 -108.5t84 -297.5q0 -195 -84 -299q-86 -109 -227 -108q-144 0 -228 110q-82 109 -82 297zM246 1114q0 -133 43 -206.5t123 -73.5t123 73q45 78 45 207q0 133 -45 205q-46 74 -123 74q-80 0 -123 -74t-43 -205zM383 -29 l842 1549h143l-842 -1549h-143zM1028 377q0 184 84 297q83 111 227 110q143 0 228 -110q84 -113 84 -297q0 -186 -86 -297q-84 -109 -226 -109q-145 0 -227 109q-84 113 -84 297zM1174 377q0 -131 43 -205t122.5 -74t122.5 74t43 205t-43 205q-45 76 -123 75 q-80 0 -122.5 -73.5t-42.5 -206.5z" />
<glyph unicode="&#x26;" horiz-adv-x="1435" d="M117 461q0 131 59 241q61 113 180 211q-45 70 -65 125q-23 63 -23 123q0 162 101 260q102 98 266 99q76 0 149 -19q80 -20 150 -53v-182q-78 47 -149.5 71.5t-133.5 24.5q-94 0 -151 -55q-59 -55 -60 -144q0 -51 27 -102q29 -53 108 -146l457 -520q49 86 82 191 q31 101 37 215h168q-12 -127 -59 -260q-47 -131 -130 -256l250 -285h-227l-129 147q-96 -92 -195 -133q-104 -43 -221 -43q-217 0 -354 137.5t-137 352.5zM291 473q0 -147 94 -243.5t240 -96.5q86 0 159 31q78 33 142 96l-477 543q-84 -80 -121 -162q-37 -80 -37 -168z" />
<glyph unicode="'" horiz-adv-x="505" d="M176 938v555h154v-555h-154z" />
<glyph unicode="(" horiz-adv-x="718" d="M158 643q0 221 67 449q68 225 203 462h143q-120 -230 -178 -454q-59 -227 -59 -457q0 -225 59 -457q57 -225 178 -456h-143q-133 231 -203 463q-67 227 -67 450z" />
<glyph unicode=")" horiz-adv-x="718" d="M147 -270q121 231 179 456q59 231 59 457q0 229 -59 457q-58 224 -179 454h146q131 -229 201 -462q68 -227 67 -449q0 -223 -67 -450q-72 -240 -201 -463h-146z" />
<glyph unicode="*" horiz-adv-x="919" d="M55 858l324 195l-324 194l51 99l304 -203v377h102v-377l301 203l53 -99l-321 -194l321 -195l-53 -98l-301 203v-377h-102v377l-304 -203z" />
<glyph unicode="+" horiz-adv-x="1542" d="M195 557v170h501v557h152v-557h502v-170h-502v-557h-152v557h-501z" />
<glyph unicode="," horiz-adv-x="583" d="M141 -238l74 320v172h191v-172l-148 -320h-117z" />
<glyph unicode="-" horiz-adv-x="663" d="M90 479v164h485v-164h-485z" />
<glyph unicode="." horiz-adv-x="583" d="M197 0v254h190v-254h-190z" />
<glyph unicode="/" horiz-adv-x="620" d="M0 -190l469 1683h152l-467 -1683h-154z" />
<glyph unicode="0" d="M123 745.5q0 376.5 118.5 575.5t344.5 199q227 0 346 -199t119 -575.5t-119 -575.5t-346 -199q-225 0 -344 199t-119 575.5zM303 745.5q0 -305.5 72 -460.5q72 -154 211 -154t211 154q72 156 71.5 461t-71.5 460q-72 154 -211.5 154t-210.5 -154q-72 -155 -72 -460.5z " />
<glyph unicode="1" d="M203 1237v184l321 72h183v-1323h297v-170h-775v170h297v1139z" />
<glyph unicode="2" d="M135 0v170l283 319q170 190 223 259q92 117 123 184q35 80 35 149q0 119 -76 195q-74 74 -197 74q-88 0 -180 -33q-98 -35 -203 -100v204q109 49 207 74q96 25 174 25q211 0 332 -115q125 -119 125 -311q0 -90 -31 -174q-33 -88 -112 -195q-18 -25 -144 -168l-340 -387 h633v-170h-852z" />
<glyph unicode="3" d="M139 45v195q77 -49 166 -74q88 -25 189 -25q170 0 260 74t90 219q0 133 -82 207q-83 74 -234 74h-155v166h164q133 0 204.5 59t71.5 172q0 115 -73.5 176.5t-211.5 61.5q-74 0 -159 -19q-80 -16 -189 -55v180q111 33 195 47q94 16 170 17q209 0 327 -105 q121 -104 121 -282q0 -125 -63.5 -209t-181.5 -119q131 -31 204 -129q72 -96 72 -242q0 -221 -135 -342q-137 -121 -389 -121q-86 0 -174 19q-95 18 -187 55z" />
<glyph unicode="4" d="M90 352v195l559 946h230v-973h190v-168h-190v-352h-183v352h-606zM238 520h458v797z" />
<glyph unicode="5" d="M141 35v203q72 -45 168 -72q86 -25 183 -25q158 0 247.5 90.5t89.5 247.5q0 156 -90 246q-92 92 -247 92q-72 0 -146 -18.5t-147 -55.5v750h714v-170h-548v-367q45 16 79 23q53 8 80 8q225 0 356.5 -137t131.5 -371q0 -242 -135 -375q-137 -133 -381 -133q-80 0 -172 17 q-83 14 -183 47z" />
<glyph unicode="6" d="M129 745q0 350 152 564q150 211 405 211q72 0 137 -15q78 -16 146 -45v-184q-68 37 -137.5 55.5t-139.5 18.5q-180 0 -274 -136q-96 -137 -109 -407q53 86 133 133q82 47 176 47q203 0 322 -137q117 -135 117 -371q0 -230 -123 -368q-123 -139 -326 -140 q-233 0 -356 198.5t-123 575.5zM342 479q0 -160 71.5 -254t194.5 -94t194.5 94t71.5 254t-71.5 254t-194.5 94t-194.5 -94t-71.5 -254z" />
<glyph unicode="7" d="M152 1323v170h864v-86l-490 -1407h-188l459 1323h-645z" />
<glyph unicode="8" d="M125 420q0 143 74 242q76 100 204 133q-117 31 -182 120q-63 88 -63 218q0 178 114 282t314 105q201 0 315.5 -104.5t114.5 -282.5q0 -127 -65.5 -217.5t-182.5 -120.5q129 -33 205 -133q74 -98 74 -242q0 -217 -119 -334q-117 -115 -342.5 -115t-341.5 115 q-119 117 -119 334zM307 420q0 -131 76 -211q74 -78 203 -78q131 0 204.5 78t73.5 211q0 137 -73.5 213t-204.5 76q-129 0 -203 -76q-76 -80 -76 -213zM338 1114q0 -115 65.5 -180.5t182 -65.5t182.5 66q68 68 68 180.5t-68 179.5q-66 66 -182.5 66t-182 -65.5t-65.5 -180.5 z" />
<glyph unicode="9" d="M117 1012q0 233 121 368q123 139 325 140q233 0 356 -199t123 -576q0 -352 -149.5 -563t-405.5 -211q-74 0 -139 15q-72 16 -145 45v184q68 -37 139.5 -55.5t136.5 -18.5q180 0 275 135q96 137 108 408q-51 -84 -133 -131t-176 -47q-203 0 -319.5 135t-116.5 371z M299 1011.5q0 -159.5 71.5 -253.5t192.5 -94q123 0 194.5 94t71.5 253.5t-71.5 254t-194.5 94.5q-121 0 -192.5 -94.5t-71.5 -254z" />
<glyph unicode=":" horiz-adv-x="620" d="M215 0v254h191v-254h-191zM215 805v254h191v-254h-191z" />
<glyph unicode=";" horiz-adv-x="620" d="M141 -238l74 320v172h191v-172l-148 -320h-117zM215 805v254h191v-254h-191z" />
<glyph unicode="&#x3c;" horiz-adv-x="1542" d="M195 559v166l1155 465v-182l-930 -367l930 -365v-182z" />
<glyph unicode="=" horiz-adv-x="1542" d="M195 352v170h1155v-170h-1155zM195 762v168h1155v-168h-1155z" />
<glyph unicode="&#x3e;" horiz-adv-x="1542" d="M195 94v182l927 365l-927 367v182l1155 -465v-166z" />
<glyph unicode="?" horiz-adv-x="976" d="M131 1219v188q86 58 172 86q82 27 180 27q168 0 267 -97q100 -98 100 -256q0 -80 -33 -145q-35 -70 -112 -154l-80 -86q-35 -39 -60 -73q-18 -29 -24 -52q-4 -16 -9 -51q-4 -41 -4 -82v-123h-172v154q0 96 27 166q25 63 106 151l80 89q51 51 74 100q25 53 25 96 q0 88 -59.5 143.5t-155.5 55.5q-70 0 -152 -35q-80 -32 -170 -102zM352 0v254h183v-254h-183z" />
<glyph unicode="@" horiz-adv-x="1841" d="M123 543q0 188 59 348q59 162 174 289q119 129 269 194q154 68 323 68q190 0 352 -86q166 -88 277 -248q63 -92 102 -213q35 -106 35 -238q0 -266 -143 -415q-145 -152 -395 -158v154q-55 -78 -123 -113q-70 -37 -162 -37q-158 0 -252 125q-96 127 -96 324q0 203 96 325 q98 125 252 125q92 0 161.5 -37t123.5 -114v131h129v-736q133 23 206.5 133.5t73.5 288.5q0 102 -29 201q-27 94 -86 174q-94 131 -227 200.5t-293 69.5q-115 0 -213 -32q-109 -37 -188 -97q-141 -100 -221 -268q-80 -166 -80 -358q0 -162 51 -297q51 -137 152 -246 q94 -104 217 -158q127 -55 266 -55q117 0 227 43q109 41 207 125l82 -111q-111 -96 -246 -149q-129 -51 -270 -51q-164 0 -313 65q-152 68 -265 191q-113 125 -174 290q-59 160 -59 353zM686 536.5q0 -141.5 63.5 -223.5t176.5 -82q111 0 174 82t63 224q0 139 -65 223 q-63 82 -174 82t-174.5 -82t-63.5 -223.5z" />
<glyph unicode="A" horiz-adv-x="1259" d="M14 0l512 1493h207l512 -1493h-188l-123 383h-606l-121 -383h-193zM383 551h496l-248 743z" />
<glyph unicode="B" horiz-adv-x="1263" d="M180 0v1493h465q205 0 320 -96q113 -94 112 -273q0 -141 -57 -219q-57 -80 -168 -100q135 -31 209 -133.5t74 -253.5q0 -201 -123 -309q-125 -109 -348 -109h-484zM362 166h291q150 0 219.5 67.5t69.5 207t-70 206.5q-68 66 -219 66h-291v-547zM362 877h271 q133 0 198.5 55t65.5 170t-65.5 170t-198.5 55h-271v-450z" />
<glyph unicode="C" horiz-adv-x="1286" d="M104 745.5q0 360.5 174.5 567.5t481.5 207q125 0 227 -35q113 -39 201 -107v-213q-92 95 -197 142q-106 47 -221 47q-229 0 -352 -156q-123 -158 -123 -452.5t123 -452.5q123 -156 352 -156q115 0 221 47q104 46 197 142v-211q-98 -72 -203 -109q-102 -35 -225 -35 q-307 0 -481.5 207t-174.5 567.5z" />
<glyph unicode="D" horiz-adv-x="1417" d="M180 0v1493h375q393 0 573 -180q182 -182 183 -565q0 -387 -185 -568q-182 -180 -571 -180h-375zM362 166h220q281 0 407 139q129 141 129 442.5t-129 440.5t-407 139h-220v-1161z" />
<glyph unicode="E" horiz-adv-x="1163" d="M180 0v1493h850v-170h-668v-442h642v-170h-642v-541h685v-170h-867z" />
<glyph unicode="F" horiz-adv-x="1058" d="M180 0v1493h772v-170h-590v-440h535v-170h-535v-713h-182z" />
<glyph unicode="G" horiz-adv-x="1427" d="M104 745.5q0 366.5 177 569.5q178 205 493 205q137 0 250 -35q115 -35 217 -107v-215q-100 94 -213 144q-109 47 -240 47q-246 0 -368 -154q-125 -156 -125 -455t125 -454q123 -154 368 -154q96 0 173 19q78 18 137 57v401h-297v166h477v-641q-100 -80 -234 -125 q-126 -43 -270 -43q-315 0 -493 205q-177 203 -177 569.5z" />
<glyph unicode="H" horiz-adv-x="1384" d="M180 0v1493h182v-612h662v612h180v-1493h-180v711h-662v-711h-182z" />
<glyph unicode="I" horiz-adv-x="542" d="M180 0v1493h182v-1493h-182z" />
<glyph unicode="J" horiz-adv-x="542" d="M-94 -240h55q121 0 170 74t49 270v1389h182v-1389q0 -270 -92 -393q-90 -121 -297 -121h-67v170z" />
<glyph unicode="K" horiz-adv-x="1206" d="M180 0v1493h182v-631l605 631h233l-668 -696l715 -797h-239l-646 719v-719h-182z" />
<glyph unicode="L" horiz-adv-x="1024" d="M180 0v1493h182v-1323h656v-170h-838z" />
<glyph unicode="M" horiz-adv-x="1589" d="M180 0v1493h273l342 -1016l344 1016h270v-1493h-176v1311l-346 -1024h-182l-349 1024v-1311h-176z" />
<glyph unicode="N" horiz-adv-x="1376" d="M180 0v1493h246l596 -1249v1249h176v-1493h-246l-596 1249v-1249h-176z" />
<glyph unicode="O" horiz-adv-x="1449" d="M104 745q0 350 170 564q168 211 451 211q285 0 453 -211q170 -213 170 -563.5t-170 -563.5q-168 -211 -453 -211q-283 0 -451 209q-170 211 -170 565zM295 745.5q0 -282.5 116.5 -446.5t313.5 -164q199 0 315 164q115 160 115 446.5t-115 446.5q-117 164 -315 164 q-197 0 -313.5 -164t-116.5 -446.5z" />
<glyph unicode="P" horiz-adv-x="1110" d="M180 0v1493h412q225 0 340 -113q117 -115 117 -334t-117 -333q-115 -113 -340 -113h-230v-600h-182zM362 766h230q126 0 196 74q68 70 68 207t-68 206q-71 74 -196 74h-230v-561z" />
<glyph unicode="Q" horiz-adv-x="1449" d="M104 745.5q0 350.5 170 563.5q168 211 451 211q285 0 453 -211q170 -213 170 -564q0 -264 -95 -446q-94 -184 -272 -272l240 -291h-220l-198 239q-14 0 -26.5 -2t-20.5 -2h-31q-283 0 -451 211q-170 213 -170 563.5zM295 745.5q0 -282.5 116.5 -446.5t313.5 -164 q199 0 315 164q115 160 115 446.5t-115 446.5q-117 164 -315 164q-197 0 -313.5 -164t-116.5 -446.5z" />
<glyph unicode="R" horiz-adv-x="1280" d="M180 0v1493h412q231 0 344 -106.5t113 -323.5q0 -139 -60 -234q-58 -92 -172 -129q57 -20 115 -94q53 -68 110 -198l187 -408h-197l-172 383q-61 145 -129 199q-61 49 -170 49h-199v-631h-182zM362 797h230q131 0 199 67q66 66 65 199q0 131 -65 197q-68 68 -199 67h-230 v-530z" />
<glyph unicode="S" horiz-adv-x="1169" d="M123 1094q0 201 125 313.5t346 112.5q94 0 192 -19q84 -16 199 -57v-197q-102 55 -194 82q-88 27 -177 27q-152 0 -229 -64q-82 -66 -82 -182q0 -98 55.5 -149.5t202.5 -81.5l109 -25q205 -43 301 -151.5t96 -290.5q0 -215 -131 -328t-383 -113q-95 0 -203 25 q-119 27 -223 70v208q123 -74 217 -104q111 -35 209 -35q154 0 240 67.5t86 194.5q0 111 -61.5 172.5t-201.5 92.5l-108 24q-207 47 -295 141q-90 97 -90 267z" />
<glyph unicode="T" horiz-adv-x="1124" d="M-4 1323v170h1134v-170h-477v-1323h-182v1323h-475z" />
<glyph unicode="U" horiz-adv-x="1347" d="M160 561v932h182v-907q0 -242 80 -346.5t254 -104.5q175 0 252 105q78 106 78 346v907h184v-932q0 -287 -131 -440q-129 -150 -383 -150q-256 0 -385 150q-131 153 -131 440z" />
<glyph unicode="V" horiz-adv-x="1259" d="M14 1493h191l426 -1257l426 1257h188l-512 -1493h-207z" />
<glyph unicode="W" horiz-adv-x="1820" d="M61 1493h185l280 -1262l283 1262h205l282 -1262l283 1262h182l-336 -1493h-229l-283 1296l-286 -1296h-230z" />
<glyph unicode="X" horiz-adv-x="1261" d="M55 0l480 797l-418 696h194l334 -555l336 555h195l-433 -717l461 -776h-194l-377 635l-381 -635h-197z" />
<glyph unicode="Y" horiz-adv-x="1124" d="M-4 1493h197l370 -614l371 614h196l-477 -782v-711h-182v711z" />
<glyph unicode="Z" horiz-adv-x="1261" d="M84 0v154l848 1169h-828v170h1055v-154l-850 -1169h871v-170h-1096z" />
<glyph unicode="[" horiz-adv-x="718" d="M158 -270v1826h383v-143h-217v-1540h217v-143h-383z" />
<glyph unicode="\" horiz-adv-x="620" d="M0 1493h154l467 -1683h-152z" />
<glyph unicode="]" horiz-adv-x="718" d="M178 -127h215v1540h-215v143h383v-1826h-383v143z" />
<glyph unicode="^" horiz-adv-x="1542" d="M195 936l489 557h176l490 -557h-183l-395 395l-395 -395h-182z" />
<glyph unicode="_" horiz-adv-x="919" d="M-18 -340h958v-143h-958v143z" />
<glyph unicode="`" horiz-adv-x="919" d="M154 1638h176l254 -374h-138z" />
<glyph unicode="a" horiz-adv-x="1128" d="M111 326q0 188 114.5 284.5t337.5 96.5h234v18q0 125 -76 197q-72 70 -211 69q-82 0 -168 -22q-74 -18 -158 -70v170q98 43 176 59q86 18 166 19q221 0 328 -125q109 -127 109 -383v-639h-166v170q-55 -100 -141.5 -149.5t-206.5 -49.5q-154 0 -246 97q-92 95 -92 258z M276 338q0 -98 57.5 -155.5t158.5 -57.5q137 0 221 108.5t84 288.5v41h-164q-203 0 -279 -51q-78 -53 -78 -174z" />
<glyph unicode="b" horiz-adv-x="1169" d="M168 0v1556h166v-606q51 98 131 147.5t190 49.5q186 0 299 -162q115 -164 115 -426t-115 -426q-113 -162 -299 -162q-111 0 -190.5 49.5t-130.5 147.5v-168h-166zM334 559q0 -199 76 -319q72 -115 206 -115q133 0 205 115q76 121 76 319q0 197 -76 318q-74 117 -205 116 q-133 0 -206 -116q-76 -121 -76 -318z" />
<glyph unicode="c" horiz-adv-x="1011" d="M102 559q0 273 136 430q135 158 370 158q84 0 150 -17q70 -16 141 -53v-172q-68 41 -141.5 63.5t-141.5 22.5q-162 0 -251 -114q-88 -113 -89 -318q0 -207 88.5 -319.5t251.5 -112.5q68 0 141.5 22.5t141.5 63.5v-170q-59 -33 -143 -53q-74 -18 -158 -19 q-229 0 -362.5 158t-133.5 430z" />
<glyph unicode="d" horiz-adv-x="1169" d="M102 559q0 262 115 426q113 162 297 162q111 0 191 -49q84 -51 133 -148v606h166v-1556h-166v168q-49 -96 -133 -148q-80 -49 -191 -49q-184 0 -297 162q-115 164 -115 426zM272 559q0 -199 76 -319q72 -115 207 -115q131 0 207 114.5t76 319.5q0 203 -76 318 q-78 117 -207 116q-133 0 -207 -116q-76 -121 -76 -318z" />
<glyph unicode="e" horiz-adv-x="1132" d="M102 549q0 272 134 436q131 162 360 162q201 0 322 -146q119 -143 118 -395v-90h-762q12 -193 103 -289q94 -100 258 -100q88 0 184 27q86 25 178 77v-174q-84 -41 -182 -63q-96 -23 -190 -23q-242 0 -383 156q-140 154 -140 422zM281 659h589q-4 154 -75 242 q-74 90 -197 90q-139 0 -223 -88q-82 -84 -94 -244z" />
<glyph unicode="f" horiz-adv-x="647" d="M43 977v143h158v78q0 184 78 272q78 86 247 86h158v-153h-158q-92 0 -125 -39q-35 -41 -34 -145v-99h272v-143h-272v-977h-166v977h-158z" />
<glyph unicode="g" horiz-adv-x="1169" d="M102 573.5q0 260.5 113 415.5q115 158 299 158q113 0 193 -49q78 -49 131 -148v170h166v-981q0 -287 -115 -426t-350 -139q-94 0 -166 14q-80 16 -150 45v179q78 -45 144 -66q68 -20 145 -20q164 0 244 94q82 98 82 286v91q-53 -98 -131 -148q-80 -49 -193 -49 q-184 0 -299 158q-113 155 -113 415.5zM272 573.5q0 -198.5 74 -309t209 -110.5q133 0 207 110q76 113 76 309.5t-76 309.5q-74 111 -207 110q-135 0 -209 -110.5t-74 -309z" />
<glyph unicode="h" horiz-adv-x="1167" d="M168 0v1556h166v-610q59 102 139 151.5t186 49.5q174 0 263 -119q90 -121 90 -352v-676h-166v670q0 158 -55.5 237.5t-167.5 79.5q-135 0 -211 -94q-78 -96 -78 -260v-633h-166z" />
<glyph unicode="i" horiz-adv-x="512" d="M174 0v1120h166v-1120h-166zM174 1323v233h166v-233h-166z" />
<glyph unicode="j" horiz-adv-x="512" d="M-33 -270h43q95 0 129 49q35 51 35 201v1140h166v-1140q0 -213 -73.5 -309.5t-235.5 -96.5h-64v156zM174 1323v233h166v-233h-166z" />
<glyph unicode="k" horiz-adv-x="1064" d="M168 0v1556h166v-919l493 483h213l-534 -524l557 -596h-217l-512 547v-547h-166z" />
<glyph unicode="l" horiz-adv-x="512" d="M174 0v1556h166v-1556h-166z" />
<glyph unicode="m" horiz-adv-x="1794" d="M168 0v1120h166v-174q57 104 135 152q80 49 188 49q113 0 189 -62q74 -59 112 -180q66 125 150 182q88 59 203 60q158 0 243 -123q84 -121 84 -348v-676h-165v670q0 164 -52 239q-53 78 -157 78q-129 0 -203 -94q-76 -98 -76 -260v-633h-166v670q0 164 -51 239 q-53 78 -158 78q-129 0 -202 -96q-74 -95 -74 -258v-633h-166z" />
<glyph unicode="n" horiz-adv-x="1167" d="M168 0v1120h166v-174q59 102 139 151.5t186 49.5q174 0 263 -119q90 -121 90 -352v-676h-166v670q0 158 -55.5 237.5t-167.5 79.5q-135 0 -211 -94q-78 -96 -78 -260v-633h-166z" />
<glyph unicode="o" horiz-adv-x="1126" d="M102 559.5q0 276.5 123 432t338 155.5q217 0 340 -155.5t123 -432t-123 -432.5t-340 -156q-215 0 -338 156t-123 432.5zM276 559q0 -203 76 -317.5t211 -114.5q133 0 211 117q78 119 78 315.5t-78 314.5q-78 117 -211 117q-132 0 -209 -117q-78 -118 -78 -315z" />
<glyph unicode="p" horiz-adv-x="1169" d="M168 -426v1546h166v-170q51 98 131 147.5t190 49.5q186 0 299 -162q115 -164 115 -426t-115 -426q-113 -162 -299 -162q-111 0 -190.5 49.5t-130.5 147.5v-594h-166zM334 559q0 -199 76 -319q72 -115 206 -115q133 0 205 115q76 121 76 319q0 197 -76 318 q-74 117 -205 116q-133 0 -206 -116q-76 -121 -76 -318z" />
<glyph unicode="q" horiz-adv-x="1169" d="M102 559q0 262 115 426q113 162 297 162q111 0 191 -49q84 -51 133 -148v170h166v-1546h-166v594q-49 -96 -133 -148q-80 -49 -191 -49q-184 0 -297 162q-115 164 -115 426zM272 559q0 -199 76 -319q72 -115 207 -115q131 0 207 114.5t76 319.5q0 203 -76 318 q-78 117 -207 116q-133 0 -207 -116q-76 -121 -76 -318z" />
<glyph unicode="r" horiz-adv-x="755" d="M168 0v1120h166v-174q53 102 135 152q84 49 205 49q23 0 37 -2q33 -4 47 -8v-189q-25 16 -62 27q-31 8 -71 8q-141 0 -215 -102q-76 -104 -76 -291v-590h-166z" />
<glyph unicode="s" horiz-adv-x="958" d="M100 41v190q94 -53 180.5 -79.5t176.5 -26.5q113 0 180 45q63 43 63 125q0 76 -45 115q-47 41 -200 77l-58 15q-154 37 -221 110q-70 76 -70 205q0 158 102.5 244t285.5 86q100 0 174 -14q84 -16 147 -46v-174q-66 37 -145 60q-74 20 -156 20q-123 0 -184 -43 q-63 -45 -64 -125q0 -61 45 -100q41 -35 178 -70l56 -14q180 -43 252 -119q74 -76 73 -213q0 -156 -110 -248q-109 -90 -305 -90q-90 0 -170 17q-74 14 -185 53z" />
<glyph unicode="t" horiz-adv-x="720" d="M49 977v143h121v318h168v-318h342v-143h-342v-608q0 -137 32.5 -176t137.5 -39h172v-154h-172q-190 0 -264 80t-74 289v608h-121z" />
<glyph unicode="u" horiz-adv-x="1167" d="M158 442v678h164v-671q0 -156 57 -238q55 -80 166 -80q137 0 213 94q78 96 78 260v635h165v-1120h-165v172q-63 -104 -140 -152q-80 -49 -186 -49q-174 0 -262 119q-90 121 -90 352zM573 1147z" />
<glyph unicode="v" horiz-adv-x="1089" d="M55 1120h174l316 -940l315 940h176l-379 -1120h-225z" />
<glyph unicode="w" horiz-adv-x="1505" d="M78 1120h166l207 -874l204 874h197l207 -874l205 874h166l-265 -1120h-194l-217 918l-217 -918h-195z" />
<glyph unicode="x" horiz-adv-x="1089" d="M53 0l391 586l-358 534h197l266 -399l266 399h197l-365 -545l383 -575h-194l-293 440l-295 -440h-195z" />
<glyph unicode="y" horiz-adv-x="1089" d="M55 1120h174l316 -876l315 876h176l-442 -1224q-70 -199 -137.5 -260.5t-177.5 -61.5h-134v154h99q68 0 104 36q39 39 84 170l31 84z" />
<glyph unicode="z" horiz-adv-x="966" d="M80 0v168l622 805h-600v147h787v-168l-623 -805h623v-147h-809z" />
<glyph unicode="{" d="M229 541v143h56q129 0 178 57q47 55 47 207v240q0 221 76 295q77 74 301 73h55v-143h-61q-125 0 -166 -45q-37 -39 -37 -184v-248q0 -156 -41 -227.5t-141 -96.5q101 -28 141 -98q41 -72 41 -227v-248q0 -145 37 -184q41 -45 166 -45h61v-144h-55q-224 0 -301 74 q-76 74 -76 295v239q0 151 -49 209q-49 57 -176 58h-56z" />
<glyph unicode="|" horiz-adv-x="620" d="M233 -483v2048h154v-2048h-154z" />
<glyph unicode="}" d="M229 -190h64q125 0 164 43q39 41 39 186v248q0 156 41 227q40 71 141 98q-100 25 -141 96.5t-41 227.5v248q0 145 -39 186q-39 43 -164 43h-64v143h58q221 0 299 -73q76 -74 76 -295v-240q0 -150 49 -207t176 -57h55v-143h-55q-127 0 -176 -58t-49 -209v-239 q0 -221 -76 -295q-78 -74 -299 -74h-58v144z" />
<glyph unicode="~" horiz-adv-x="1542" d="M195 467v178q92 78 176 113q82 35 168 35q104 0 231 -60l12 -6q2 0 9.5 -3t11.5 -5q139 -61 223 -62q77 0 154 37q72 35 170 123v-178q-92 -78 -176 -113q-82 -35 -168 -34q-94 0 -230 59q-10 4 -14 6q-2 0 -9.5 3t-11.5 5q-141 61 -223 61.5t-158 -38.5 q-81 -43 -165 -121z" />
<glyph unicode="&#xa2;" d="M156 559q0 260 118 412q119 154 336 174v287h92v-287q57 -2 129 -21q53 -14 121 -47v-172q-70 41 -127 62q-61 22 -123 24v-864q68 6 125 27q68 23 125 59v-170q-51 -27 -118 -47q-61 -18 -132 -25v-284h-92v288q-217 20 -336 175q-118 151 -118 409zM330 559 q0 -186 73 -299q72 -111 207 -129v856q-133 -18 -207 -131q-73 -115 -73 -297z" />
<glyph unicode="&#xa3;" d="M117 0v170h211v465h-178v143h178v238q0 258 96 383q94 121 305 121q61 0 125 -15q53 -12 137 -45v-182q-68 40 -129 61q-59 20 -117 21q-131 0 -184 -78t-53 -289v-215h352v-143h-352v-465h502v-170h-893z" />
<glyph unicode="&#xa5;" d="M74 1493h172l340 -700l340 700h172l-287 -586h238v-123h-297l-76 -155v-51h373v-123h-371v-455h-182v455h-373v123h373v51l-76 155h-297v123h235z" />
<glyph unicode="&#xa9;" horiz-adv-x="1841" d="M256 741q0 158 47 285q49 132 148 240q102 113 215 164q121 55 256 55t254 -55q117 -53 217 -164q98 -108 147 -240q47 -127 47 -285q0 -160 -47 -282q-51 -135 -147 -240q-100 -111 -217 -164q-119 -55 -254.5 -55t-255.5 55q-113 51 -215 164q-96 104 -148 240 q-47 122 -47 282zM344 741q0 -131 43 -243q41 -111 129 -207q82 -94 186.5 -141.5t219.5 -47.5q117 0 221 47.5t186 141.5q80 90 125 207q43 113 43 243q0 132 -43 246q-45 117 -125 207q-82 94 -186.5 141t-220.5 47q-115 0 -219.5 -47t-186.5 -141q-86 -95 -129 -209 q-43 -113 -43 -244zM524 741q0 211 113 330q115 121 307 121q70 0 127 -14q74 -18 121 -41v-129q-61 35 -119 49q-61 16 -119 16q-131 0 -209 -88q-76 -84 -75 -244q0 -158 77.5 -245.5t217.5 -87.5q53 0 112 16q51 14 115 49v-127q-61 -28 -123 -43q-57 -14 -125 -14 q-194 0 -307 123q-113 120 -113 329z" />
<glyph unicode="&#xad;" horiz-adv-x="663" d="M90 479v164h485v-164h-485z" />
<glyph unicode="&#xae;" horiz-adv-x="1841" d="M256 741q0 158 47 285q49 132 148 240q102 113 215 164q121 55 256 55t254 -55q117 -53 217 -164q98 -108 147 -240q47 -127 47 -285q0 -160 -47 -282q-51 -135 -147 -240q-100 -111 -217 -164q-119 -55 -254.5 -55t-255.5 55q-113 51 -215 164q-96 104 -148 240 q-47 122 -47 282zM344 741q0 -131 43 -243q41 -111 129 -207q82 -94 186.5 -141.5t219.5 -47.5q117 0 221 47.5t186 141.5q80 90 125 207q43 113 43 243q0 132 -43 246q-45 117 -125 207q-82 94 -186.5 141t-220.5 47q-115 0 -219.5 -47t-186.5 -141q-86 -95 -129 -209 q-43 -113 -43 -244zM647 338v836h256q156 0 238 -60q78 -57 78 -180q0 -84 -48 -141q-45 -55 -133 -74q23 -10 52 -47q39 -51 71 -111l123 -223h-154l-116 209q-53 96 -86 121q-37 27 -82 26h-60v-356h-139zM786 795h111q98 0 139 30q39 31 39 107q0 78 -41 108 q-39 31 -137 31h-111v-276z" />
<glyph unicode="&#xb4;" horiz-adv-x="919" d="M334 1262l252 376h180l-295 -376h-137z" />
<glyph unicode="&#x2000;" horiz-adv-x="817" />
<glyph unicode="&#x2001;" horiz-adv-x="1636" />
<glyph unicode="&#x2002;" horiz-adv-x="817" />
<glyph unicode="&#x2003;" horiz-adv-x="1636" />
<glyph unicode="&#x2004;" horiz-adv-x="544" />
<glyph unicode="&#x2005;" horiz-adv-x="407" />
<glyph unicode="&#x2006;" horiz-adv-x="272" />
<glyph unicode="&#x2007;" horiz-adv-x="272" />
<glyph unicode="&#x2008;" horiz-adv-x="202" />
<glyph unicode="&#x2009;" horiz-adv-x="325" />
<glyph unicode="&#x200a;" horiz-adv-x="90" />
<glyph unicode="&#x2010;" horiz-adv-x="663" d="M90 479v164h485v-164h-485z" />
<glyph unicode="&#x2011;" horiz-adv-x="663" d="M90 479v164h485v-164h-485z" />
<glyph unicode="&#x2012;" horiz-adv-x="663" d="M90 479v164h485v-164h-485z" />
<glyph unicode="&#x2013;" horiz-adv-x="919" d="M90 489v144h741v-144h-741z" />
<glyph unicode="&#x2014;" horiz-adv-x="1841" d="M90 489v144h1663v-144h-1663z" />
<glyph unicode="&#x2018;" horiz-adv-x="583" d="M158 1001v173l145 319h117l-74 -319v-173h-188z" />
<glyph unicode="&#x2019;" horiz-adv-x="583" d="M160 1022l73 319v152h191v-152l-148 -319h-116z" />
<glyph unicode="&#x201c;" horiz-adv-x="952" d="M158 1001v173l145 319h117l-74 -319v-173h-188zM526 1001v173l148 319h114l-71 -319v-173h-191z" />
<glyph unicode="&#x201d;" horiz-adv-x="952" d="M158 1001l71 320v172h191v-172l-148 -320h-114zM526 1001l72 320v172h190v-172l-147 -320h-115z" />
<glyph unicode="&#x2022;" horiz-adv-x="1085" d="M276 762q0 121 78 209q77 86 191 86q111 0 188 -86q78 -88 78 -209q0 -123 -78 -211q-78 -86 -188 -86q-114 0 -191 86q-78 88 -78 211z" />
<glyph unicode="&#x2026;" horiz-adv-x="1841" d="M213 0v254h190v-254h-190zM825 0v254h193v-254h-193zM1440 0v254h190v-254h-190z" />
<glyph unicode="&#x202f;" horiz-adv-x="325" />
<glyph unicode="&#x205f;" horiz-adv-x="407" />
<glyph unicode="&#x20ac;" d="M0 520l49 123h125v47v55v58v47h-174l49 123h141q37 258 175 401q139 145 352 146q94 0 172 -35q88 -39 162 -107v-213q-84 104 -158 150q-76 45 -168 45q-141 0 -233.5 -100.5t-118.5 -286.5h520l-51 -123h-484q-2 -16 -2 -47v-58v-55q0 -31 2 -47h402l-51 -123h-336 q29 -188 119 -289q92 -100 233 -100q92 0 168 45q74 45 158 150v-211q-82 -72 -164 -109q-78 -35 -170 -35q-213 0 -352 146q-137 143 -175 403h-190z" />
<glyph unicode="&#x2122;" horiz-adv-x="1841" d="M266 1399v94h465v-94h-182v-484h-103v484h-180zM834 915v578h153l158 -256l147 256h154v-578h-103v484l-176 -303h-49l-182 303v-484h-102z" />
<glyph unicode="&#xe000;" horiz-adv-x="1120" d="M0 1120h1120v-1120h-1120v1120z" />
<glyph unicode="&#xfb01;" horiz-adv-x="1159" d="M43 977v143h158v78q0 182 77.5 270t239.5 88h166v-153h-158q-92 0 -125 -39q-35 -41 -34 -145v-99h620v-1120h-166v977h-454v-977h-166v977h-158zM821 1321v233h166v-233h-166z" />
<glyph unicode="&#xfb02;" horiz-adv-x="1159" d="M43 977v143h158v78q0 184 78 272q78 86 247 86h461v-1556h-166v1403h-295q-92 0 -125 -39q-35 -41 -34 -145v-99h272v-143h-272v-977h-166v977h-158z" />
<glyph unicode="&#xfb03;" horiz-adv-x="1781" d="M43 977v143h158v78q0 184 78 272q78 86 247 86h158v-153h-158q-92 0 -125 -39q-35 -41 -34 -145v-99h454v78q0 184 78 272q23 27 62 48q70 39 188 38h156v-153h-158q-90 0 -123 -39q-37 -43 -37 -145v-99h623v-1120h-166v977h-457v-977h-166v977h-454v-977h-166v977h-158 zM1444 1321v233h166v-233h-166z" />
<glyph unicode="&#xfb04;" horiz-adv-x="1781" d="M43 977v143h158v78q0 184 78 272q78 86 247 86h158v-153h-158q-92 0 -125 -39q-35 -41 -34 -145v-99h454v78q0 184 78 272q76 86 250 86h461v-1556h-166v1403h-297q-90 0 -123 -39q-37 -43 -37 -145v-99h275v-143h-275v-977h-166v977h-454v-977h-166v977h-158z" />
</font>
</defs>
</svg>
