<?xml version="1.0" standalone="no"?>
<!DOCTYPE svg PUBLIC "-//W3C//DTD SVG 1.1//EN" "http://www.w3.org/Graphics/SVG/1.1/DTD/svg11.dtd" >
<svg xmlns="http://www.w3.org/2000/svg">
<metadata>
This is a custom SVG webfont generated by Font Squirrel.
Copyright   : Copyright c 2003 by Bitstream Inc All Rights ReservedCopyright c 2006 by Tavmjong Bah All Rights ReservedDejaVu changes are in public domain
Foundry     : DejaVu fonts team
Foundry URL : httpdejavusourceforgenet
</metadata>
<defs>
<font id="webfonth7bn007r" horiz-adv-x="1280" >
<font-face units-per-em="2048" ascent="1556" descent="-492" />
<missing-glyph horiz-adv-x="638" />
<glyph unicode=" "  horiz-adv-x="638" />
<glyph unicode="&#x09;" horiz-adv-x="638" />
<glyph unicode="&#xa0;" horiz-adv-x="638" />
<glyph unicode="!" horiz-adv-x="839" d="M127 0l63 356h324l-61 -356h-326zM262 502l25 418l102 573h326l-103 -573l-118 -418h-232z" />
<glyph unicode="&#x22;" horiz-adv-x="958" d="M176 938v555h213v-555h-213zM571 938v555h213v-555h-213z" />
<glyph unicode="#" d="M121 383l47 215h252l63 274h-254l47 213h256l86 385h201l-86 -385h238l88 385h198l-88 -385h269l-47 -213h-269l-61 -274h266l-47 -215h-266l-86 -383h-201l86 383h-235l-89 -383h-198l86 383h-256zM621 598h237l64 274h-238z" />
<glyph unicode="$" d="M49 86l45 262q88 -57 182 -86q102 -33 207 -35l56 312q-188 31 -277 112q-86 80 -86 223q0 199 135 322q133 121 365 131l41 229h143l-39 -227q102 -6 176 -22q88 -18 164 -45l-45 -254q-61 39 -141 61q-86 25 -195 31l-51 -289q193 -37 285 -117t92 -215 q0 -221 -135 -346q-133 -123 -381 -133l-53 -301h-146l53 301q-121 6 -213 27q-96 20 -182 59zM469 948q0 -45 31 -76q27 -27 90 -36l45 262q-76 -10 -121 -49.5t-45 -100.5zM629 227q90 6 137 47t47 119q0 55 -31 80q-33 27 -102 39z" />
<glyph unicode="%" horiz-adv-x="1845" d="M102 1018q0 223 119 362.5t314 139.5q139 0 225 -86t86 -226q0 -223 -121 -362t-311 -139q-141 0 -228 86q-84 84 -84 225zM258 -29l1112 1549h219l-1110 -1549h-221zM330 1051q0 -88 28 -133q27 -43 82 -44q80 0 127 84q49 86 49 222q0 88 -26 129q-29 43 -82 43 q-82 0 -129 -84q-49 -86 -49 -217zM1004 285q0 223 118 360q121 139 312 139q141 0 227 -86q84 -84 84 -225q0 -225 -119 -362q-121 -139 -311 -140q-141 0 -228 86q-83 85 -83 228zM1231 315q0 -86 29 -131q27 -43 81 -43q80 0 129 84q49 82 50 219q0 84 -29 129 q-29 43 -82 43q-80 0 -129 -84q-49 -82 -49 -217z" />
<glyph unicode="&#x26;" horiz-adv-x="1605" d="M51 416q0 154 86 278q86 127 266 240q-23 47 -34 90q-12 45 -13 92q0 176 138 291q133 113 350 113q88 0 168 -15q86 -15 178 -43l-49 -278q-78 49 -150 71q-74 23 -141 23q-77 0 -123 -37q-45 -37 -45 -96q0 -41 27 -96q29 -61 79 -134l269 -374q59 70 96 151 q41 94 66 203h278q-35 -168 -108 -317q-70 -141 -181 -256l232 -322h-396l-75 106q-115 -72 -211 -102q-104 -33 -217 -33q-219 0 -354.5 123t-135.5 322zM371 483q0 -104 69 -180q68 -74 170 -74q57 0 107 21q53 23 106 63l-305 430q-76 -57 -110 -118q-37 -68 -37 -142z " />
<glyph unicode="'" horiz-adv-x="563" d="M176 938v555h213v-555h-213z" />
<glyph unicode="(" horiz-adv-x="841" d="M141 373q0 293 115 590q113 293 344 591h262q-209 -310 -313 -614q-102 -299 -103 -608q0 -147 25 -299q25 -147 74 -303h-262q-74 176 -107 325q-35 164 -35 318z" />
<glyph unicode=")" horiz-adv-x="841" d="M-49 -270q209 310 313 614q102 299 103 610q0 152 -25 299.5t-74 300.5h264q74 -176 105 -323q33 -156 33 -320q0 -299 -113 -592q-114 -295 -344 -589h-262z" />
<glyph unicode="*" horiz-adv-x="962" d="M37 870l301 174l-301 173l67 141l302 -182v344h153v-344l299 182l70 -141l-297 -173l297 -174l-70 -141l-299 184v-344h-153v344l-302 -184z" />
<glyph unicode="+" horiz-adv-x="1542" d="M195 524v236h471v524h213v-524h471v-236h-471v-524h-213v524h-471z" />
<glyph unicode="," horiz-adv-x="698" d="M-63 -291l157 373l53 305h324l-53 -305l-289 -373h-192z" />
<glyph unicode="-" horiz-adv-x="763" d="M45 444l53 291h566l-52 -291h-567z" />
<glyph unicode="." horiz-adv-x="698" d="M86 0l68 387h323l-67 -387h-324z" />
<glyph unicode="/" horiz-adv-x="671" d="M-176 -190l768 1683h209l-768 -1683h-209z" />
<glyph unicode="0" d="M68 510q0 199 49 385q49 188 137 328q96 152 219 223q129 74 289 74q215 0 336 -140q119 -137 119 -397q0 -200 -50 -387q-49 -186 -139 -330q-94 -150 -219 -221q-129 -74 -287 -74q-221 0 -338 140q-116 138 -116 399zM401 451q0 -111 37 -164.5t113 -53.5q72 0 123 46 q53 47 90 135q23 57 45 143q18 70 39 191q8 43 22 163q8 66 9 129q0 115 -35 164q-37 53 -113 53q-68 0 -123 -45t-88 -135q-28 -65 -49 -147q-27 -100 -39 -182q-8 -49 -22 -166q-9 -68 -9 -131z" />
<glyph unicode="1" d="M80 0l47 266h305l168 965l-326 -72l45 262l326 72h330l-213 -1227h305l-47 -266h-940z" />
<glyph unicode="2" d="M14 0l52 285l571 479q90 76 141 162q49 83 49 159q0 82 -49 127q-47 45 -141 45q-80 0 -191 -38q-102 -37 -237 -115l57 317q123 49 240 74t233 25q207 0 324 -98.5t117 -268.5q0 -145 -72 -266t-317 -324l-336 -280h585l-51 -283h-975z" />
<glyph unicode="3" d="M0 45l51 297q80 -53 174 -80q98 -29 191 -29q152 0 239.5 63.5t87.5 170.5q0 90 -67 133q-72 45 -203 45h-137l45 248h145q141 0 223 57.5t82 153.5q0 78 -57 117t-166 39q-72 0 -166 -23q-92 -23 -186 -63l47 282q119 33 209 47q111 16 205 17q227 0 342 -84t115 -250 q0 -150 -80 -248q-82 -100 -224 -133q102 -25 158 -105q57 -82 57 -194q0 -246 -176 -391q-174 -143 -487 -144q-119 0 -223 19q-103 18 -199 55z" />
<glyph unicode="4" d="M-2 272l59 330l695 891h393l-166 -942h190l-47 -279h-190l-49 -272h-328l47 272h-604zM283 551h368l109 614z" />
<glyph unicode="5" d="M25 70l53 303q111 -78 192 -107q92 -33 193 -33q143 0 227 82q86 82 86 217q0 96 -65 152q-68 57 -176 57q-74 0 -164 -22q-102 -25 -193 -66l148 840h862l-49 -283h-586l-41 -231q41 12 82 18q43 6 86 7q207 0 324 -105q115 -102 114 -289q0 -295 -178 -467t-485 -172 q-111 0 -219 25q-107 25 -211 74z" />
<glyph unicode="6" d="M92 522q0 205 55 389q55 186 156 320q106 143 256 215t332 72q78 0 164 -17q72 -14 162 -47l-50 -276q-82 45 -149 65q-78 23 -146 23q-168 0 -270 -101q-106 -102 -127 -280q70 51 143.5 75.5t159.5 24.5q166 0 271 -108q104 -106 104 -279q0 -279 -162 -453 q-164 -176 -418 -176q-231 0 -356 143.5t-125 409.5zM432 401q0 -88 41 -139q39 -49 113 -49q102 0 168 92q66 94 65 234q0 96 -39 147t-112 51q-106 0 -170 -94q-66 -97 -66 -242z" />
<glyph unicode="7" d="M143 0l711 1210h-637l49 283h1014l-43 -219l-748 -1274h-346z" />
<glyph unicode="8" d="M41 344q0 160 94 279q96 121 262 172q-96 45 -145 116q-47 68 -47 174q0 203 149 320q147 115 414 115q215 0 330 -88q117 -88 116 -248q0 -143 -81.5 -243.5t-231.5 -145.5q111 -45 162 -125q51 -78 51 -201q0 -231 -159.5 -364.5t-444.5 -133.5q-223 0 -346 98.5 t-123 274.5zM373 393q0 -84 45 -131q45 -49 127 -49q106 0 176 78t70 196q0 84 -46 131q-45 49 -127 50q-102 0 -174 -80q-71 -82 -71 -195zM535 1061q0 -66 40 -111q39 -41 105 -41q92 0 147.5 59.5t55.5 157.5q0 70 -39 111t-107 41q-92 0 -147 -59.5t-55 -157.5z" />
<glyph unicode="9" d="M76 33l47 276q82 -47 151.5 -67.5t145.5 -20.5q170 0 272 101q100 98 123 280q-66 -51 -141 -76q-74 -25 -158 -24q-166 0 -270 108q-106 111 -107 279q0 276 164 452.5t418 176.5q229 0 354 -144q127 -145 127 -409q0 -205 -55 -390q-53 -178 -160 -319 q-109 -145 -254 -215q-150 -72 -330 -72q-80 0 -165 17q-78 14 -162 47zM471 948q0 -94 41 -147q39 -51 113 -51q104 0 168 94q66 96 65 241q0 92 -39 140q-41 49 -112 49q-100 0 -168 -92.5t-68 -233.5z" />
<glyph unicode=":" horiz-adv-x="735" d="M76 0l67 387h326l-70 -387h-323zM205 733l65 387h326l-68 -387h-323z" />
<glyph unicode=";" horiz-adv-x="735" d="M-66 -291l156 373l53 305h326l-53 -305l-289 -373h-193zM205 733l65 387h326l-68 -387h-323z" />
<glyph unicode="&#x3c;" horiz-adv-x="1542" d="M195 524v236l1155 463v-250l-869 -332l869 -330v-250z" />
<glyph unicode="=" horiz-adv-x="1542" d="M195 295v237h1155v-237h-1155zM195 752v235h1155v-235h-1155z" />
<glyph unicode="&#x3e;" horiz-adv-x="1542" d="M195 61v250l870 330l-870 332v250l1155 -463v-236z" />
<glyph unicode="?" horiz-adv-x="1067" d="M193 0l63 356h324l-64 -356h-323zM203 1124l55 314q94 35 209 61q90 20 182 21q176 0 274.5 -86t98.5 -234q0 -121 -47 -213q-49 -94 -164 -196l-70 -60q-74 -66 -96 -100q-27 -45 -33 -82l-8 -45h-323l6 49q16 82 55 143q43 66 156 164l65 58q70 59 105 114 q33 51 32 107q0 57 -36.5 87.5t-104.5 30.5q-70 0 -162 -35t-194 -98z" />
<glyph unicode="@" horiz-adv-x="1841" d="M84 434q0 182 53 340q55 166 156 301q131 174 317 271q182 94 398 94q147 0 276 -47q127 -47 227 -138q92 -86 146 -208q51 -117 51 -250q0 -315 -184.5 -512t-483.5 -197l-4 -1q-4 -1 -8 -1h-10h-8q-2 0 -3 1l-3 1l28 158q-39 -74 -108 -117q-63 -41 -148 -41 q-129 0 -203 94q-74 96 -73 262q0 223 127 381q131 162 305 162q76 0 131 -43q57 -45 76 -110l20 133h182l-118 -693q135 20 227 164q90 137 90 332q0 213 -147.5 348t-384.5 135q-178 0 -328 -75q-154 -78 -258 -220q-82 -109 -125 -241q-43 -131 -43 -275q0 -272 147 -440 q150 -170 383 -170q106 0 211 43q102 43 197 127l98 -158q-133 -98 -260 -147q-129 -49 -256 -49q-121 0 -233 41q-109 39 -201 118q-129 111 -193 267q-63 157 -63 360zM698 446q0 -86 37 -129t107 -43q94 0 162 101q66 98 65 246q0 88 -37 133q-37 47 -100 47 q-98 0 -166 -105t-68 -250z" />
<glyph unicode="A" horiz-adv-x="1425" d="M-121 0l760 1493h397l238 -1493h-330l-39 272h-536l-133 -272h-357zM500 543h360l-82 575z" />
<glyph unicode="B" horiz-adv-x="1402" d="M39 0l262 1493h518q240 0 354.5 -78t114.5 -241q0 -135 -67.5 -240t-176.5 -135q86 -27 138 -103q47 -70 47 -184q0 -242 -162 -377t-453 -135h-575zM428 262h207q119 0 182.5 63.5t63.5 180.5q0 74 -43 110.5t-136 36.5h-204zM545 915h192q94 0 145.5 51.5t51.5 143.5 q0 59 -37 90t-104 31h-195z" />
<glyph unicode="C" horiz-adv-x="1351" d="M68 573q0 182 51 338q53 164 149 289q117 154 285 238q164 82 358 82q109 0 209 -27q106 -29 215 -84l-55 -309q-82 70 -174 106q-88 35 -188 35q-207 0 -348.5 -178t-141.5 -445q0 -170 88 -270q86 -98 238 -98q90 0 192.5 37t229.5 114l-60 -331q-121 -49 -237 -74 q-113 -25 -217 -25q-270 0 -432 164t-162 438z" />
<glyph unicode="D" horiz-adv-x="1529" d="M39 0l262 1493h365q258 0 391 -35q131 -35 217 -115q90 -82 131 -196q45 -123 45 -262q0 -201 -76 -383q-72 -176 -211 -301q-123 -111 -276.5 -156t-483.5 -45h-364zM436 291h125q242 0 383 151.5t141 407.5q0 174 -92 262q-94 90 -274 90h-121z" />
<glyph unicode="E" horiz-adv-x="1257" d="M39 0l262 1493h934l-51 -291h-588l-49 -278h555l-53 -291h-553l-60 -342h606l-49 -291h-954z" />
<glyph unicode="F" horiz-adv-x="1257" d="M39 0l262 1493h934l-51 -291h-588l-49 -278h555l-53 -291h-553l-111 -633h-346z" />
<glyph unicode="G" horiz-adv-x="1511" d="M68 573q0 184 51 340q51 160 151 289q123 160 293 240q164 78 387 78q123 0 242 -27q117 -27 242 -84l-54 -309q-117 76 -215 106q-109 35 -211 35q-229 0 -376.5 -172t-147.5 -442q0 -180 86 -278.5t240 -98.5q35 0 100 8q45 6 102 23l52 290h-211l43 258h538l-125 -718 q-133 -72 -272 -105q-145 -35 -303 -35q-287 0 -449 162q-163 164 -163 440z" />
<glyph unicode="H" horiz-adv-x="1540" d="M39 0l262 1493h346l-100 -569h512l98 569h346l-262 -1493h-344l109 633h-510l-111 -633h-346z" />
<glyph unicode="I" horiz-adv-x="684" d="M39 0l262 1493h346l-262 -1493h-346z" />
<glyph unicode="J" horiz-adv-x="684" d="M-305 -410l49 291h55q106 0 174 68q72 72 93 196l235 1348h346l-235 -1348q-53 -293 -205 -424t-443 -131h-69z" />
<glyph unicode="K" horiz-adv-x="1427" d="M39 0l262 1493h346l-94 -537l571 537h418l-770 -725l582 -768h-408l-452 623l-109 -623h-346z" />
<glyph unicode="L" horiz-adv-x="1173" d="M39 0l262 1493h346l-211 -1202h606l-49 -291h-954z" />
<glyph unicode="M" horiz-adv-x="1832" d="M39 0l262 1493h424l174 -793l455 793h442l-262 -1493h-330l193 1102l-465 -815h-189l-184 815l-192 -1102h-328z" />
<glyph unicode="N" horiz-adv-x="1540" d="M39 0l262 1493h387l307 -1034l181 1034h327l-262 -1493h-387l-307 1034l-180 -1034h-328z" />
<glyph unicode="O" horiz-adv-x="1564" d="M68 569q0 180 49 344q49 162 145 293q115 160 275 236q162 78 368 78q270 0 432 -166q162 -164 162 -432q0 -181 -49 -344q-47 -160 -145 -291q-115 -156 -277 -238q-156 -78 -369 -78q-268 0 -429.5 164t-161.5 434zM430 612q0 -172 72 -268q70 -94 198 -94 q104 0 184.5 49t137.5 143q57 96 84 205q29 119 29 234q0 174 -72 268q-72 92 -209 92q-176 0 -301 -180q-123 -179 -123 -449z" />
<glyph unicode="P" horiz-adv-x="1349" d="M39 0l262 1493h576q211 0 329.5 -106.5t118.5 -299.5q0 -121 -39 -223q-41 -106 -112 -184q-74 -80 -193 -123q-109 -39 -276 -39h-230l-90 -518h-346zM526 797h191q125 0 188.5 63.5t63.5 186.5q0 82 -45 124q-46 43 -136 43h-190z" />
<glyph unicode="Q" horiz-adv-x="1564" d="M68 569q0 184 49 346q47 160 145 291q117 160 275 236q162 78 368 78q270 0 432 -166q162 -164 162 -432q0 -319 -135 -551q-139 -238 -383 -344l207 -326h-332l-172 272q-4 0 -10 -1t-10 -1h-31q-104 0 -193 31q-90 31 -164 92q-98 80 -153 207q-55 125 -55 268z M430 612q0 -172 72 -268q70 -94 198 -94q104 0 184.5 49t137.5 143q57 96 84 205q29 119 29 234q0 174 -72 268q-72 92 -209 92q-176 0 -301 -180q-123 -179 -123 -449z" />
<glyph unicode="R" horiz-adv-x="1417" d="M39 0l262 1493h512q223 0 336 -92q115 -92 115 -271q0 -180 -90 -299q-88 -115 -244 -133q71 -15 117 -80q49 -70 81 -194l113 -424h-344l-100 371q-31 111 -74 153q-41 41 -127 41h-111l-100 -565h-346zM530 831h148q117 0 178 62q59 59 59 178q0 76 -41 109 q-45 35 -133 34h-143z" />
<glyph unicode="S" horiz-adv-x="1325" d="M29 78l55 325q125 -80 231 -114q121 -39 224 -39q121 0 192 53q76 57 76 139q0 55 -35 86t-145 62l-142 39q-154 43 -233 137q-76 90 -76 240q0 233 160 374q158 139 432 140q113 0 225 -19q114 -18 234 -55l-58 -316q-104 57 -200 84q-94 27 -193 27q-131 0 -202.5 -45 t-71.5 -125q0 -52 30 -80q31 -27 134 -55l141 -39q178 -49 262 -145q82 -94 82 -244q0 -242 -166 -389.5t-444 -147.5q-135 0 -260 27q-129 28 -252 80z" />
<glyph unicode="T" horiz-adv-x="1255" d="M88 1202l51 291h1239l-51 -291h-446l-211 -1202h-346l211 1202h-447z" />
<glyph unicode="U" horiz-adv-x="1495" d="M125 414q0 23 4 80q2 25 14 104l158 895h346l-158 -895q-10 -51 -12 -84q-4 -49 -4 -65q0 -94 47 -146q46 -49 142 -49q127 0 192.5 78t99.5 266l158 895h346l-158 -895q-59 -332 -221 -479q-163 -147 -467 -148q-238 0 -362.5 113t-124.5 330z" />
<glyph unicode="V" horiz-adv-x="1425" d="M139 1493h330l166 -1116l557 1116h356l-760 -1493h-411z" />
<glyph unicode="W" horiz-adv-x="2031" d="M197 1493h321l41 -1085l422 1085h330l43 -1085l407 1085h346l-579 -1493h-391l-45 1135l-437 -1135h-399z" />
<glyph unicode="X" horiz-adv-x="1419" d="M-94 0l604 766l-317 727h352l207 -469l368 469h377l-584 -737l330 -756h-350l-219 500l-393 -500h-375z" />
<glyph unicode="Y" horiz-adv-x="1333" d="M117 1493h346l227 -553l402 553h399l-664 -870l-108 -623h-346l108 623z" />
<glyph unicode="Z" horiz-adv-x="1335" d="M-47 0l41 238l872 964h-684l51 291h1131l-43 -238l-870 -964h723l-52 -291h-1169z" />
<glyph unicode="[" horiz-adv-x="841" d="M-18 -270l319 1826h557l-41 -225h-250l-241 -1376h254l-41 -225h-557z" />
<glyph unicode="\" horiz-adv-x="671" d="M129 1493h201l178 -1683h-199z" />
<glyph unicode="]" horiz-adv-x="841" d="M-51 -270l39 225h252l241 1376h-252l37 225h559l-317 -1826h-559z" />
<glyph unicode="^" horiz-adv-x="1542" d="M186 936l476 557h221l475 -557h-217l-369 301l-369 -301h-217z" />
<glyph unicode="_" horiz-adv-x="919" d="M-18 -293h958v-190h-958v190z" />
<glyph unicode="`" horiz-adv-x="919" d="M242 1638h254l188 -376h-176z" />
<glyph unicode="a" horiz-adv-x="1241" d="M33 276q0 215 147 328q145 113 430 113h191l4 28q2 10 2 21v10q0 65 -55 98q-57 35 -168 35q-96 0 -193 -22q-88 -20 -180 -70l47 273q104 29 207 43q100 14 219 14q225 0 333.5 -86t108.5 -260q0 -20 -4 -74q-4 -43 -12 -88l-113 -639h-321l26 166q-80 -102 -167 -148 q-90 -47 -193 -47q-143 0 -225 82q-84 84 -84 223zM362 340q0 -61 37 -96q39 -35 101 -35q98 0 165.5 67.5t88.5 186.5l8 41h-156q-123 0 -182 -41q-62 -43 -62 -123z" />
<glyph unicode="b" horiz-adv-x="1318" d="M57 0l271 1556h323l-104 -600q72 94 155 144q82 47 177 47q172 0 270 -121q98 -120 98 -326q0 -125 -35 -251q-31 -113 -100 -222q-86 -129 -184 -190q-106 -66 -221 -66q-98 0 -175 47q-74 47 -122 144l-29 -162h-324zM467 428q0 -92 43 -145q43 -51 125 -52 q121 0 201 125q78 123 77 322q0 106 -41 156q-43 53 -124 53q-125 0 -203 -127q-78 -125 -78 -332z" />
<glyph unicode="c" horiz-adv-x="1091" d="M68 426q0 135 47 266q43 121 137 232q98 113 223 168q127 55 293 55q70 0 152 -17q84 -16 151 -45l-51 -292q-66 51 -127 73q-66 25 -125 25q-154 0 -256 -117q-100 -115 -100 -301q0 -117 61 -182q61 -63 176 -64q74 0 148 25q76 25 139 74l-49 -293q-84 -33 -162 -47 q-74 -14 -164 -15q-238 0 -364 119q-129 119 -129 336z" />
<glyph unicode="d" horiz-adv-x="1318" d="M68 418q0 125 34 252q33 117 99 221q86 129 184 190q106 66 221 66q100 0 176 -47q74 -47 123 -144l105 600h325l-272 -1556h-326l31 162q-72 -94 -156 -144q-82 -47 -178 -47q-170 0 -268 119t-98 328zM399 440q0 -104 43 -155q43 -53 123 -54q125 0 203 127t78 332 q0 92 -43 146q-43 51 -123 51q-121 0 -201 -125q-80 -127 -80 -322z" />
<glyph unicode="e" horiz-adv-x="1249" d="M68 434q0 131 38.5 248t120.5 221q94 121 222 182q129 61 286 62q205 0 326 -121q119 -119 119 -326q0 -55 -4 -84q-10 -74 -17 -98l-10 -57h-756v-17q0 -4 -1 -10t-1 -8q0 -109 60 -164q55 -53 178 -53q98 0 215 35q115 35 235 100l-49 -278q-106 -45 -233 -72 q-106 -23 -238 -23q-233 0 -364 121q-127 119 -127 342zM438 682h416q4 16 4 27q0 4 1 13t1 13q0 80 -43 127t-117 47q-96 0 -161.5 -57t-100.5 -170z" />
<glyph unicode="f" horiz-adv-x="800" d="M92 864l45 256h158l14 78q33 184 140 272q104 86 299 86h247l-43 -235h-176q-70 0 -98 -27q-31 -27 -43 -96l-17 -78h275l-45 -256h-273l-151 -864h-324l152 864h-160z" />
<glyph unicode="g" horiz-adv-x="1318" d="M37 -377l49 279q70 -51 152 -80q74 -27 155 -27q162 0 246 76q86 78 117 242l14 77q-78 -98 -158 -145q-78 -45 -174 -45q-172 0 -270 123q-100 125 -100 334q0 111 34 227q31 104 101 213q80 119 182 184q100 63 219 64q109 0 180 -45q70 -43 121 -146l27 166h325 l-170 -973q-53 -303 -223 -446t-475 -143q-88 0 -180 16q-86 15 -172 49zM403 469q0 -104 43 -156q43 -53 123 -53q119 0 199 119q78 117 78 295q0 102 -43 157.5t-123 55.5q-117 0 -197 -119q-80 -121 -80 -299z" />
<glyph unicode="h" horiz-adv-x="1310" d="M57 0l271 1556h323l-104 -600q88 96 178 143.5t188 47.5q139 0 217 -80q74 -76 74 -229q0 -16 -4 -70q-4 -57 -10 -86l-121 -682h-324l103 584q6 29 16 96q6 41 6 63q0 61 -32 99q-31 35 -90 35q-101 0 -172 -86t-99 -240l-96 -551h-324z" />
<glyph unicode="i" horiz-adv-x="630" d="M57 0l197 1120h324l-197 -1120h-324zM276 1264l52 292h323l-51 -292h-324z" />
<glyph unicode="j" horiz-adv-x="630" d="M-236 -442l41 235h56q90 0 133 45q45 47 65 182l195 1100h324l-195 -1100q-41 -236 -154 -348q-115 -115 -305 -114h-160zM276 1264l52 292h323l-51 -292h-324z" />
<glyph unicode="k" horiz-adv-x="1224" d="M57 0l271 1556h323l-145 -843l434 407h379l-586 -518l426 -602h-368l-326 483l-84 -483h-324z" />
<glyph unicode="l" horiz-adv-x="630" d="M57 0l271 1556h323l-270 -1556h-324z" />
<glyph unicode="m" horiz-adv-x="1918" d="M57 0l197 1120h324l-31 -164q76 94 162 144q82 47 178 47q102 0 178 -59.5t90 -153.5q70 100 170 158q96 55 199 55q137 0 213 -82q78 -84 78 -227q0 -14 -5 -68q-2 -20 -14 -88l-119 -682h-323l100 584l2 14q25 141 25 160q0 55 -29 88q-27 31 -78 31q-92 0 -155 -84 q-66 -86 -93 -242l-98 -551h-323l102 584q10 51 20 114q4 27 4 60q0 59 -26 88q-27 31 -80 31q-86 0 -156 -89q-68 -86 -92 -237l-96 -551h-324z" />
<glyph unicode="n" horiz-adv-x="1310" d="M57 0l197 1120h324l-31 -164q88 96 178 143.5t188 47.5q139 0 217 -80q74 -76 74 -229q0 -16 -4 -70q-4 -57 -10 -86l-121 -682h-324l103 584q6 29 16 96q6 41 6 63q0 61 -32 99q-31 35 -90 35q-101 0 -172 -86t-99 -240l-96 -551h-324z" />
<glyph unicode="o" horiz-adv-x="1265" d="M68 444q0 123 41 246q39 115 118 221q86 113 215 176q121 59 275 60q223 0 354 -127q129 -127 129 -346q0 -123 -41 -246q-39 -117 -119 -219q-94 -119 -214.5 -178.5t-280.5 -59.5q-219 0 -350 127q-127 125 -127 346zM403 444q0 -104 46 -161q43 -55 126 -56 q125 0 205 127q82 129 82 322q0 104 -43 159.5t-129 55.5q-125 0 -205 -125q-82 -129 -82 -322z" />
<glyph unicode="p" horiz-adv-x="1318" d="M-18 -426l272 1546h324l-31 -164q72 94 155 144q82 47 177 47q172 0 270 -121q98 -120 98 -326q0 -125 -35 -251q-31 -113 -100 -222q-86 -129 -184 -190q-106 -66 -221 -66q-98 0 -175 47q-74 47 -122 144l-105 -588h-323zM467 428q0 -92 43 -145q43 -51 125 -52 q121 0 201 125q78 123 77 322q0 106 -41 156q-43 53 -124 53q-125 0 -203 -127q-78 -125 -78 -332z" />
<glyph unicode="q" horiz-adv-x="1318" d="M68 418q0 125 34 252q33 117 99 221q86 129 184 190q106 66 221 66q100 0 176 -47q74 -47 123 -144l27 164h325l-272 -1546h-323l104 588q-68 -94 -154 -144q-82 -47 -178 -47q-170 0 -268 119t-98 328zM399 440q0 -104 43 -155q43 -53 123 -54q125 0 203 127t78 332 q0 92 -43 146q-43 51 -123 51q-121 0 -201 -125q-80 -127 -80 -322z" />
<glyph unicode="r" horiz-adv-x="907" d="M57 0l197 1120h324l-35 -192q63 106 159 162q98 57 211 57q27 0 41 -2q22 -3 50 -6l-56 -324q-31 20 -74 33q-33 10 -88 10q-123 0 -204 -88q-84 -90 -111 -254l-90 -516h-324z" />
<glyph unicode="s" horiz-adv-x="1095" d="M18 43l50 281q84 -57 186 -86t203 -29q102 0 153.5 26.5t51.5 79.5q0 33 -29 56q-23 18 -119 41l-59 12q-170 39 -246 119q-74 77 -74 215q0 188 127 288.5t365 100.5q96 0 204 -17q104 -16 201 -45l-47 -278q-102 53 -188 76q-100 27 -179 26q-94 0 -147 -28 q-51 -27 -51 -78q0 -29 29 -47q25 -16 112 -39l60 -12q197 -47 274.5 -119t77.5 -201q0 -195 -137 -305q-135 -109 -385 -109q-106 0 -213 19q-124 20 -220 53z" />
<glyph unicode="t" horiz-adv-x="880" d="M80 864l43 256h162l55 318h324l-56 -318h330l-45 -256h-332l-82 -475q-4 -20 -4 -27q0 -4 -1 -11t-1 -9q0 -45 26.5 -65.5t94.5 -20.5h166l-45 -256h-273q-143 0 -221 67.5t-78 196.5q0 18 4 60q4 45 9 65l82 475h-158z" />
<glyph unicode="u" horiz-adv-x="1310" d="M111 281q0 20 4 73q2 23 10 82l119 684h321l-100 -583q-4 -20 -9 -52l-7 -45q-6 -39 -7 -63q0 -61 33 -98q31 -35 88 -35q101 0 172 86q74 90 101 239l96 551h323l-194 -1120h-326l31 164q-80 -96 -174 -146q-88 -47 -193 -47q-137 0 -213 80q-75 78 -75 230z" />
<glyph unicode="v" horiz-adv-x="1200" d="M117 1120h297l131 -782l379 782h325l-592 -1120h-340z" />
<glyph unicode="w" horiz-adv-x="1701" d="M160 1120h297l35 -770l305 770h256l37 -768l301 768h317l-461 -1120h-342l-33 770l-309 -770h-334z" />
<glyph unicode="x" horiz-adv-x="1187" d="M-76 0l484 573l-269 547h336l150 -332l262 332h350l-459 -545l281 -575h-336l-160 354l-289 -354h-350z" />
<glyph unicode="y" horiz-adv-x="1200" d="M0 -442l33 235h102q82 0 123 29q45 33 78 104l29 60l-242 1134h303l137 -776l359 776h344l-637 -1226q-109 -207 -199 -271q-94 -66 -235 -65h-195z" />
<glyph unicode="z" horiz-adv-x="1071" d="M-16 0l43 250l628 614h-497l43 256h878l-43 -250l-628 -614h522l-45 -256h-901z" />
<glyph unicode="{" horiz-adv-x="1310" d="M195 494l41 223h57q127 0 184 57q59 59 84 209l37 205q35 197 137 280q106 88 303 88h195l-39 -225h-64q-123 0 -170 -43t-71 -186l-31 -166q-28 -157 -80 -227q-53 -72 -155 -97q72 -23 104 -65q35 -47 35 -123q0 -18 -4 -64q-3 -34 -13 -73l-28 -166q-4 -20 -10 -70 q-2 -16 -2 -41q0 -70 36.5 -94.5t139.5 -24.5h61l-39 -225h-196q-158 0 -242 62q-82 61 -82 184q0 10 4 51q6 53 8 72l33 192q8 43 10 58q2 18 2 49q0 88 -41 125q-37 35 -145 35h-59z" />
<glyph unicode="|" horiz-adv-x="671" d="M233 -483v2048h205v-2048h-205z" />
<glyph unicode="}" horiz-adv-x="1310" d="M82 -334l39 225h61q123 0 172 46q47 45 72 184l29 166q29 160 82 227q59 76 155 98q-72 18 -104 64q-35 47 -35 123q0 12 4 57q0 10 10 80l31 166l5 36.5t5 30.5q2 16 2 43q0 68 -37 93q-41 27 -141 26h-59l39 225h196q162 0 242 -61q82 -63 82 -184q0 -16 -4 -58 q-2 -20 -10 -65l-35 -205q-4 -20 -9 -57q-2 -18 -2 -49q0 -88 41 -123q43 -37 148 -37h55l-41 -223h-53q-129 0 -186 -58q-59 -59 -84 -209l-35 -192q-33 -190 -139 -281q-102 -88 -302 -88h-194z" />
<glyph unicode="~" horiz-adv-x="1542" d="M195 434v244q100 82 178 115q82 35 166 34q94 0 225 -59q10 -4 18 -8l21 -8q139 -61 223 -62q77 0 154 37q80 37 170 123v-244q-96 -82 -176 -114q-82 -35 -168 -35q-98 0 -226 57q-4 2 -9 5t-9 5q-2 0 -9.5 3t-11.5 5q-141 61 -223 61.5t-158 -38.5q-81 -43 -165 -121z " />
<glyph unicode="&#xa2;" d="M123 414q0 291 164 491q164 203 430 236l51 291h145l-51 -287q74 -4 127 -17q72 -16 135 -43l-51 -292q-68 49 -129 73.5t-119 24.5h-8l-115 -664q84 4 152 27q76 27 135 72l-49 -293q-57 -23 -135 -39q-63 -14 -148 -21l-49 -286h-145l49 290q-180 20 -284.5 137.5 t-104.5 299.5zM465 473q0 -74 24.5 -129t71.5 -80l107 592q-92 -45 -148 -151q-55 -105 -55 -232z" />
<glyph unicode="&#xa3;" d="M12 0l47 266h203l57 326h-174l41 239h174l31 170q45 266 182 394q133 125 383 125q82 0 162 -13q74 -10 156 -41l-49 -286q-49 35 -117 57q-61 20 -127 20q-113 0 -176.5 -61t-85.5 -195l-31 -170h336l-39 -239h-338l-57 -326h485l-45 -266h-1018z" />
<glyph unicode="&#xa5;" d="M10 416l35 194h401l13 76l-27 76h-360l32 192h263l-193 539h332l174 -500l346 500h365l-396 -539h265l-33 -192h-369l-51 -76l-19 -76h410l-33 -194h-409l-74 -416h-342l74 416h-404z" />
<glyph unicode="&#xa9;" horiz-adv-x="1841" d="M256 741q0 158 47 285q49 132 148 240q102 113 215 164q121 55 256 55t254 -55q117 -53 217 -164q98 -108 147 -240q47 -127 47 -285q0 -160 -47 -282q-51 -135 -147 -240q-100 -111 -217 -164q-119 -55 -254.5 -55t-255.5 55q-113 51 -215 164q-96 104 -148 240 q-47 122 -47 282zM391 741q0 -123 39 -225q40 -104 117 -190t172 -129t203 -43q111 0 202 43q98 45 172 129q77 86 117 190q39 102 39 225t-39 226q-40 104 -117 190q-78 88 -172 131q-92 43 -202.5 43t-202.5 -43q-88 -41 -172 -131q-77 -86 -117 -190q-39 -103 -39 -226z M541 741.5q0 192.5 114 311.5q115 117 303 116q55 0 121 -10q47 -8 113 -33v-215q-45 31 -102 54q-49 18 -103 18q-100 0 -157.5 -63.5t-57.5 -178t57.5 -178t157.5 -63.5q58 0 111 18q47 16 94 53v-213q-61 -23 -119 -34q-49 -10 -115 -11q-188 0 -303 117 q-114 119 -114 311.5z" />
<glyph unicode="&#xad;" horiz-adv-x="763" d="M45 444l53 291h566l-52 -291h-567z" />
<glyph unicode="&#xae;" horiz-adv-x="1841" d="M256 741q0 158 47 285q49 132 148 240q102 113 215 164q121 55 256 55t254 -55q117 -53 217 -164q98 -108 147 -240q47 -127 47 -285q0 -160 -47 -282q-51 -135 -147 -240q-100 -111 -217 -164q-119 -55 -254.5 -55t-255.5 55q-113 51 -215 164q-96 104 -148 240 q-47 122 -47 282zM391 741q0 -123 39 -225q40 -104 117 -190t172 -129t203 -43q111 0 202 43q98 45 172 129q77 86 117 190q39 102 39 225t-39 226q-40 104 -117 190q-78 88 -172 131q-92 43 -202.5 43t-202.5 -43q-88 -41 -172 -131q-77 -86 -117 -190q-39 -103 -39 -226z M647 338v836h256q156 0 238 -60q78 -57 78 -180q0 -84 -48 -141q-45 -55 -133 -74q37 -22 68 -62q33 -43 59 -98l99 -221h-205l-96 213q-29 66 -62 111q-25 33 -51 32h-10v-356h-193zM840 829h30q72 0 107 27t35 78q0 53 -35 77.5t-107 24.5h-30v-207z" />
<glyph unicode="&#xb4;" horiz-adv-x="919" d="M418 1262l311 376h264l-395 -376h-180z" />
<glyph unicode="&#x2000;" horiz-adv-x="817" />
<glyph unicode="&#x2001;" horiz-adv-x="1636" />
<glyph unicode="&#x2002;" horiz-adv-x="817" />
<glyph unicode="&#x2003;" horiz-adv-x="1636" />
<glyph unicode="&#x2004;" horiz-adv-x="544" />
<glyph unicode="&#x2005;" horiz-adv-x="407" />
<glyph unicode="&#x2006;" horiz-adv-x="272" />
<glyph unicode="&#x2007;" horiz-adv-x="272" />
<glyph unicode="&#x2008;" horiz-adv-x="202" />
<glyph unicode="&#x2009;" horiz-adv-x="325" />
<glyph unicode="&#x200a;" horiz-adv-x="90" />
<glyph unicode="&#x2010;" horiz-adv-x="763" d="M45 444l53 291h566l-52 -291h-567z" />
<glyph unicode="&#x2011;" horiz-adv-x="763" d="M45 444l53 291h566l-52 -291h-567z" />
<glyph unicode="&#x2012;" horiz-adv-x="763" d="M45 444l53 291h566l-52 -291h-567z" />
<glyph unicode="&#x2013;" horiz-adv-x="919" d="M43 432l47 258h723l-45 -258h-725z" />
<glyph unicode="&#x2014;" horiz-adv-x="1841" d="M43 432l47 258h1645l-45 -258h-1647z" />
<glyph unicode="&#x2018;" horiz-adv-x="698" d="M209 856l51 285l266 352h191l-154 -352l-49 -285h-305z" />
<glyph unicode="&#x2019;" horiz-adv-x="698" d="M135 856l152 352l51 285h305l-49 -285l-268 -352h-191z" />
<glyph unicode="&#x201c;" horiz-adv-x="1185" d="M209 856l51 285l266 352h191l-154 -352l-49 -285h-305zM694 856l49 285l267 352h192l-151 -352l-50 -285h-307z" />
<glyph unicode="&#x201d;" horiz-adv-x="1185" d="M135 856l152 352l51 285h305l-49 -285l-268 -352h-191zM621 856l151 352l49 285h307l-51 -285l-264 -352h-192z" />
<glyph unicode="&#x2022;" horiz-adv-x="1177" d="M266 762q0 80 23 139q27 68 69 115q47 49 107 78q55 27 124.5 26.5t125.5 -26.5q53 -25 102 -78q47 -53 71.5 -116.5t24.5 -137.5t-24 -139q-25 -63 -72 -117q-43 -49 -104 -78q-55 -27 -125 -27t-125 27q-61 29 -105 78q-41 47 -67 117q-25 65 -25 139z" />
<glyph unicode="&#x2026;" horiz-adv-x="1841" d="M86 0l68 387h323l-67 -387h-324zM655 0l70 387h324l-68 -387h-326zM1229 0l67 387h324l-68 -387h-323z" />
<glyph unicode="&#x202f;" horiz-adv-x="325" />
<glyph unicode="&#x205f;" horiz-adv-x="407" />
<glyph unicode="&#x20ac;" d="M-76 477l80 195h125q0 33 6 67q12 63 17 82h-158l76 195h141q90 236 270 368q182 135 404 136q96 0 188 -27q90 -27 193 -84l-49 -309q-78 84 -150 119q-82 39 -170 38q-98 0 -186 -63q-90 -63 -150 -178h449l-78 -195h-434q-8 -45 -11 -69q0 -10 -3 -37t-5 -43h395 l-79 -195h-306q23 -121 92.5 -182.5t180.5 -61.5q84 0 176 43q84 39 186 125l-53 -331q-111 -49 -215 -74t-194 -25q-223 0 -361 131q-138 132 -172 375h-205z" />
<glyph unicode="&#x2122;" horiz-adv-x="1841" d="M266 1350v143h465v-143h-156v-435h-155v435h-154zM834 915v578h204l107 -227l106 227h205v-578h-153v437l-123 -256h-68l-125 256v-437h-153z" />
<glyph unicode="&#xe000;" horiz-adv-x="1120" d="M0 1120h1120v-1120h-1120v1120z" />
<glyph unicode="&#xfb01;" horiz-adv-x="1449" d="M92 864l45 256h158l14 78q33 184 140 272q104 86 299 86h247l-43 -235h-176q-70 0 -98 -27q-31 -27 -43 -96l-17 -78h777l-197 -1120h-321l149 864h-451l-151 -864h-324l152 864h-160zM1096 1264l51 292h323l-51 -292h-323z" />
<glyph unicode="&#xfb02;" horiz-adv-x="1449" d="M92 864l45 256h158l14 78q33 184 140 272q104 86 299 86h722l-272 -1556h-321l227 1321h-328q-70 0 -98 -27q-31 -27 -43 -96l-17 -78h275l-45 -256h-273l-151 -864h-324l152 864h-160z" />
<glyph unicode="&#xfb03;" horiz-adv-x="2095" d="M92 864l45 256h160l12 78q34 184 142 270q106 88 299 88h245l-41 -235h-178q-70 0 -98 -27q-33 -27 -45 -96l-15 -78h369l14 78q31 184 140 270q106 88 301 88h246l-41 -235h-179q-70 0 -98 -27q-31 -27 -43 -96l-14 -78h690l-197 -1120h-325l151 864h-364l-152 -864 h-323l149 864h-369l-149 -864h-324l152 864h-160zM1704 1264l49 292h326l-51 -292h-324z" />
<glyph unicode="&#xfb04;" horiz-adv-x="2097" d="M92 864l45 256h160l12 78q34 184 142 270q106 88 299 88h245l-41 -235h-178q-70 0 -98 -27q-33 -27 -45 -96l-15 -78h369l14 78q31 184 140 270q106 88 301 88h639l-273 -1556h-325l231 1321h-246q-72 0 -100 -27q-33 -29 -45 -96l-12 -78h252l-45 -256h-252l-152 -864 h-321l149 864h-369l-149 -864h-324l152 864h-160z" />
</font>
</defs>
</svg>
