<?xml version="1.0" standalone="no"?>
<!DOCTYPE svg PUBLIC "-//W3C//DTD SVG 1.1//EN" "http://www.w3.org/Graphics/SVG/1.1/DTD/svg11.dtd" >
<svg xmlns="http://www.w3.org/2000/svg">
<metadata>
This is a custom SVG webfont generated by Font Squirrel.
Copyright   : Copyright c 2003 by Bitstream Inc All Rights ReservedCopyright c 2006 by Tavmjong Bah All Rights ReservedDejaVu changes are in public domain
Foundry     : DejaVu fonts team
Foundry URL : httpdejavusourceforgenet
</metadata>
<defs>
<font id="webfontnxuyxjHo" horiz-adv-x="1302" >
<font-face units-per-em="2048" ascent="1556" descent="-492" />
<missing-glyph horiz-adv-x="649" />
<glyph unicode=" "  horiz-adv-x="649" />
<glyph unicode="&#x09;" horiz-adv-x="649" />
<glyph unicode="&#xa0;" horiz-adv-x="649" />
<glyph unicode="!" horiz-adv-x="819" d="M162 0l51 254h203l-49 -254h-205zM276 481l50 357l127 655h202l-127 -655l-90 -357h-162z" />
<glyph unicode="&#x22;" horiz-adv-x="940" d="M197 938v555h170v-555h-170zM575 938v555h170v-555h-170z" />
<glyph unicode="#" horiz-adv-x="1714" d="M143 414l37 153h330l84 334h-336l39 154h336l102 415h162l-104 -415h292l105 415h160l-103 -415h336l-39 -154h-336l-82 -334h340l-36 -153h-343l-104 -414h-160l103 414h-293l-103 -414h-161l104 414h-330zM672 567h293l82 334h-291z" />
<glyph unicode="$" d="M68 92l34 184q96 -63 193 -96q109 -37 205 -39l88 457q-188 37 -274.5 110.5t-86.5 200.5q0 168 138 281q139 115 362 133l47 233h100l-45 -233q90 -4 177 -18q84 -14 161 -43l-34 -181q-80 43 -170 70q-88 27 -162 29l-84 -428q184 -27 280 -115q96 -86 97 -221 q0 -176 -144 -289q-145 -115 -379 -127l-59 -301h-100l59 301q-121 4 -217 27q-112 26 -186 65zM418 938q0 -68 47 -109t156 -59l79 410q-135 -16 -206 -78q-76 -66 -76 -164zM600 145q141 6 219 70q82 66 82 168q0 84 -51 129q-53 47 -166 66z" />
<glyph unicode="%" horiz-adv-x="1945" d="M186 1036q0 217 115 350.5t303 133.5q135 0 215 -90.5t80 -241.5q0 -217 -117 -348q-117 -133 -301 -133q-135 0 -215 88q-80 89 -80 241zM289 -29l1235 1549h159l-1234 -1549h-160zM346 1026q0 -90 41 -141t115 -51q106 0 171.5 96t65.5 252q0 106 -39 157 q-41 53 -116 54q-111 0 -174.5 -96.5t-63.5 -270.5zM1049 301q0 219 116 350q117 133 301 133q135 0 215 -88q78 -86 78 -241q0 -213 -116.5 -348.5t-299.5 -135.5q-135 0 -214.5 88t-79.5 242zM1208 291q0 -92 41 -144q41 -49 115 -49q109 0 172 94.5t63 253.5 q0 104 -38 160q-37 53 -115 53q-111 0 -174 -98q-64 -96 -64 -270z" />
<glyph unicode="&#x26;" horiz-adv-x="1595" d="M96 369q0 152 92 290q90 135 275 254q-29 43 -45 93q-14 43 -15 102q0 66 23 129q20 59 66 111q63 78 174 127q102 45 223 45q78 0 158 -19q88 -20 159 -53l-35 -182q-76 47 -149.5 71.5t-144.5 24.5q-125 0 -201 -64q-78 -66 -78 -165q0 -43 18 -86q14 -35 89 -132 l407 -520q78 84 127 180q55 109 82 226h186q-47 -162 -118 -291q-76 -137 -177 -240l209 -270h-252l-106 139q-109 -84 -227 -125q-123 -43 -256 -43q-219 0 -353 109q-131 107 -131 289zM295 414q0 -126 86 -203q88 -78 227 -78q94 0 185 33q92 35 174 94l-426 543 q-123 -92 -183 -187q-63 -102 -63 -202z" />
<glyph unicode="'" horiz-adv-x="561" d="M197 938v555h170v-555h-170z" />
<glyph unicode="(" horiz-adv-x="798" d="M158 383q0 299 137 588t416 583h163q-270 -338 -395 -628q-131 -303 -131 -574q0 -157 37 -313q35 -152 115 -309h-160q-90 170 -137 333q-45 160 -45 320z" />
<glyph unicode=")" horiz-adv-x="798" d="M-127 -270q266 330 395 628q131 303 131 574q0 157 -37 313q-35 152 -114 309h160q88 -166 137 -333q45 -156 45 -318q0 -295 -139 -592q-137 -293 -414 -581h-164z" />
<glyph unicode="*" horiz-adv-x="1024" d="M61 858l359 195l-359 194l58 99l336 -203v377h114v-377l336 203l58 -99l-359 -194l359 -195l-58 -98l-336 203v-377h-114v377l-336 -203z" />
<glyph unicode="+" horiz-adv-x="1714" d="M217 557v170h557v557h168v-557h557v-170h-557v-557h-168v557h-557z" />
<glyph unicode="," horiz-adv-x="649" d="M6 -238l144 320l34 172h211l-33 -172l-227 -320h-129z" />
<glyph unicode="-" horiz-adv-x="737" d="M92 479l33 164h539l-31 -164h-541z" />
<glyph unicode="." horiz-adv-x="649" d="M119 0l49 254h211l-49 -254h-211z" />
<glyph unicode="/" horiz-adv-x="688" d="M-150 -190l846 1683h178l-847 -1683h-177z" />
<glyph unicode="0" d="M102 494q0 195 52 380q53 193 143 340q92 151 215 228q125 78 270 78q201 0 310 -136q109 -137 108 -387q0 -182 -51 -381q-49 -188 -141 -340q-92 -150 -219 -227.5t-277 -77.5q-197 0 -303 135q-107 134 -107 388zM301 465q0 -162 59 -250q57 -84 172 -84q78 0 148 41 t123 119q94 135 145 327q53 201 53 408q0 162 -59 250q-57 84 -172 84q-76 0 -145.5 -41t-122.5 -119q-88 -127 -146 -330q-55 -196 -55 -405z" />
<glyph unicode="1" d="M100 0l33 170h330l223 1149l-373 -72l35 174l371 72h203l-258 -1323h329l-32 -170h-861z" />
<glyph unicode="2" d="M8 0l33 170l674 578q137 119 192 206q55 90 56 181q0 96 -68 157.5t-178 61.5q-98 0 -211 -33q-104 -31 -248 -100l37 200q121 49 237 74q114 25 209 25q197 0 316 -104.5t119 -272.5q0 -115 -58 -217q-57 -104 -174 -205l-645 -553h713l-35 -168h-969z" />
<glyph unicode="3" d="M4 45l37 191q98 -53 190 -78q96 -25 195 -25q195 0 319 103q123 100 123 262q0 106 -77.5 161.5t-223.5 55.5h-174l31 164h184q168 0 262.5 75.5t94.5 206.5q0 94 -70 145.5t-197 51.5q-100 0 -196 -21q-101 -22 -209 -61l31 180q121 33 213 47q111 16 204 17 q199 0 314 -88q117 -88 116 -236q0 -145 -92 -249.5t-252 -141.5q127 -37 185 -113q59 -78 59 -200.5t-57.5 -225t-165.5 -180.5q-83 -58 -197 -86q-119 -29 -262 -29q-95 0 -190 19q-99 18 -195 55z" />
<glyph unicode="4" d="M37 352l39 195l805 946h254l-191 -973h213l-33 -168h-213l-67 -352h-201l68 352h-674zM233 520h510l156 797z" />
<glyph unicode="5" d="M41 35l37 188q92 -46 184 -67q96 -23 187 -23q195 0 323 117q127 115 127 293q0 131 -84 202.5t-233 71.5q-78 0 -164 -18q-88 -18 -176 -56l145 750h803l-31 -168h-618l-72 -369q49 16 94 23q47 6 96 6q206 0 326 -111q121 -111 121 -301q0 -133 -62 -256 q-61 -121 -174 -213q-80 -65 -196 -98q-121 -35 -252 -35q-82 0 -184 17q-80 12 -197 47z" />
<glyph unicode="6" d="M129 461q0 213 55 409q55 201 152 340q106 154 249.5 232t323.5 78q82 0 154 -15q70 -14 149 -47l-34 -184q-55 35 -134 57q-70 20 -159 21q-206 0 -332 -129q-127 -129 -188 -408q74 86 170 129t208 43q180 0 291 -106q109 -104 109 -283q0 -143 -53 -272 q-49 -119 -156 -220q-74 -68 -164 -100q-94 -35 -197 -35q-207 0 -325.5 131.5t-118.5 358.5zM332 412q0 -131 65 -207q65 -74 178 -74q156 0 260.5 123t104.5 299q0 125 -66 201q-63 74 -176 73q-156 0 -260 -120q-106 -123 -106 -295z" />
<glyph unicode="7" d="M190 0l807 1323h-768l33 170h1022l-18 -86l-854 -1407h-222z" />
<glyph unicode="8" d="M68 358q0 158 108 285q104 123 285 158q-104 37 -160 112q-55 78 -55 183q0 180 151 303q147 121 381 121q190 0 313 -98.5t123 -250.5q0 -129 -90 -235q-88 -102 -247 -150q111 -41 174 -131q59 -84 59 -209q0 -207 -160 -342q-158 -133 -413 -133q-217 0 -342 105 q-127 104 -127 282zM266 379q0 -113 78 -180q77 -68 209 -68q160 0 258 90q100 92 100 232q0 114 -80 184q-82 72 -206 72q-157 0 -258 -93q-101 -92 -101 -237zM444 1090q0 -98 70 -160q71 -61 184 -62q138 0 228 80q88 80 88 201q0 96 -70 153.5t-186 57.5 q-135 0 -226 -78q-88 -75 -88 -192z" />
<glyph unicode="9" d="M90 33l37 184q55 -35 131 -57q70 -20 160 -21q209 0 334 131q127 133 188 408q-74 -86 -172 -129q-102 -45 -209 -45q-178 0 -289 106q-109 104 -108 283q0 143 53 272q51 125 156 219q76 68 161 101q94 35 197 35q209 0 328 -131.5t119 -358.5q0 -211 -56 -407 q-55 -199 -153 -342q-106 -154 -250 -232t-324 -78q-82 0 -153 15q-70 14 -150 47zM362 940q0 -125 66 -200.5t178 -75.5q156 0 260.5 118.5t104.5 296.5q0 131 -66 207q-65 74 -178 74q-158 0 -260 -121q-105 -123 -105 -299z" />
<glyph unicode=":" horiz-adv-x="688" d="M106 0l50 254h211l-50 -254h-211zM264 805l49 254h211l-49 -254h-211z" />
<glyph unicode=";" horiz-adv-x="688" d="M2 -238l143 320l35 172h211l-35 -172l-225 -320h-129zM287 805l49 254h211l-49 -254h-211z" />
<glyph unicode="&#x3c;" horiz-adv-x="1714" d="M217 559v166l1282 465v-182l-1032 -367l1032 -365v-182z" />
<glyph unicode="=" horiz-adv-x="1714" d="M217 352v170h1282v-170h-1282zM217 762v168h1282v-168h-1282z" />
<glyph unicode="&#x3e;" horiz-adv-x="1714" d="M217 94v182l1030 365l-1030 367v182l1282 -465v-166z" />
<glyph unicode="?" horiz-adv-x="1085" d="M252 1219l37 188q101 58 203 86q98 27 208 27q162 0 254.5 -74t92.5 -205q0 -102 -54 -192q-51 -88 -174 -189l-104 -84q-84 -66 -113 -112q-27 -43 -45 -140l-25 -123h-190l31 154q18 98 57 160q43 68 150 157l106 89q88 74 119 122q33 51 33 111q0 78 -54 119 q-55 43 -151 43q-86 0 -178 -35q-94 -34 -203 -102zM258 0l49 254h203l-49 -254h-203z" />
<glyph unicode="@" horiz-adv-x="2048" d="M119 401q0 221 104 435q102 209 293 364q133 111 320 176q178 63 368 64q322 0 531 -189q211 -190 211 -473q0 -295 -203 -491.5t-520 -202.5l30 154q-66 -72 -149.5 -111t-167.5 -39q-150 0 -244 98q-96 100 -96 252q0 217 149 385q145 164 347 164q90 0 165 -41 q70 -37 111 -110l27 131h143l-143 -738q176 27 291 181q115 152 114 360q0 233 -166 380.5t-426 147.5q-172 0 -344 -63q-166 -61 -293 -176q-152 -141 -227 -309q-80 -176 -80 -361q0 -260 174 -432q172 -170 445 -170q129 0 254 43q115 39 262 137l82 -114 q-135 -102 -291 -154q-160 -53 -322 -53q-324 0 -536 215q-213 216 -213 540zM756 467q0 -111 57 -174.5t158 -63.5q143 0 237 113q96 115 97 281q0 104 -57.5 163.5t-153.5 59.5q-141 0 -239.5 -110.5t-98.5 -268.5z" />
<glyph unicode="A" horiz-adv-x="1400" d="M-109 0l863 1493h229l277 -1493h-211l-62 383h-672l-211 -383h-213zM408 551h548l-129 743z" />
<glyph unicode="B" horiz-adv-x="1404" d="M55 0l291 1493h516q207 0 314 -78q104 -76 104 -235q0 -141 -90 -248t-234 -127q127 -29 187 -107q61 -80 61 -211q0 -224 -166 -356q-164 -131 -456 -131h-527zM289 166h325q182 0 283 84q98 82 98 237q0 117 -65 172q-61 53 -211 54h-324zM426 877h301q164 0 252 69 q90 72 90 195q0 98 -61 141q-63 45 -195 45h-299z" />
<glyph unicode="C" horiz-adv-x="1429" d="M86 561q0 178 61 350q61 170 177 314q127 154 278 223q160 72 365 72q137 0 243 -35q119 -39 213 -107l-41 -213q-92 94 -204 144q-111 47 -232 47q-174 0 -301 -82q-129 -84 -223 -250q-61 -106 -92 -229q-31 -119 -31 -242q0 -201 107 -311q104 -106 305 -107 q133 0 268 45q125 41 248 133l-47 -239q-119 -51 -240 -76q-133 -27 -244 -27q-287 0 -448.5 155.5t-161.5 434.5z" />
<glyph unicode="D" horiz-adv-x="1576" d="M55 0l291 1493h434q347 0 523 -147t176 -435q0 -195 -68 -368q-70 -178 -184 -297q-121 -125 -301 -185q-184 -61 -434 -61h-437zM291 166h264q336 0 524 194q186 193 187 551q0 215 -119 315.5t-377 100.5h-254z" />
<glyph unicode="E" horiz-adv-x="1292" d="M55 0l291 1493h944l-33 -170h-743l-86 -442h713l-33 -170h-713l-104 -541h760l-33 -170h-963z" />
<glyph unicode="F" horiz-adv-x="1177" d="M55 0l291 1493h856l-33 -170h-655l-86 -440h592l-33 -170h-592l-139 -713h-201z" />
<glyph unicode="G" horiz-adv-x="1585" d="M92 561q0 229 96 440q94 205 267 347q108 86 233 129q127 43 283 43q147 0 268 -35q133 -37 246 -107l-41 -215q-86 92 -211 144q-120 49 -258 49q-164 0 -281 -60q-119 -61 -215 -188q-82 -111 -127 -254q-47 -152 -47 -299q0 -211 107 -315q108 -104 319 -105 q102 0 205 23q96 20 182 65l78 391h-332l31 166h530l-129 -657q-127 -72 -290 -113q-154 -39 -316 -39q-283 0 -440.5 155.5t-157.5 434.5z" />
<glyph unicode="H" horiz-adv-x="1538" d="M55 0l291 1493h203l-119 -612h733l119 612h203l-291 -1493h-203l139 711h-733l-139 -711h-203z" />
<glyph unicode="I" horiz-adv-x="602" d="M55 0l291 1493h203l-291 -1493h-203z" />
<glyph unicode="J" horiz-adv-x="602" d="M-336 -410l33 170h63q135 0 205 76t107 268l270 1389h203l-271 -1389q-52 -270 -178 -393q-123 -121 -352 -121h-80z" />
<glyph unicode="K" horiz-adv-x="1341" d="M55 0l291 1493h203l-123 -629l784 629h269l-887 -713l649 -780h-246l-596 727l-141 -727h-203z" />
<glyph unicode="L" horiz-adv-x="1140" d="M55 0l289 1493h203l-256 -1325h727l-33 -168h-930z" />
<glyph unicode="M" horiz-adv-x="1765" d="M55 0l291 1493h303l174 -1006l578 1006h311l-291 -1493h-196l254 1309l-586 -1022h-197l-190 1026l-254 -1313h-197z" />
<glyph unicode="N" horiz-adv-x="1531" d="M55 0l291 1493h272l412 -1280l250 1280h197l-291 -1493h-273l-411 1288l-250 -1288h-197z" />
<glyph unicode="O" horiz-adv-x="1611" d="M82 580q0 163 61 331q61 166 170 301q127 156 283 232q154 76 344 76q276 0 432 -162q158 -164 158 -440q0 -178 -60 -338q-61 -166 -172 -301q-127 -154 -282 -232q-152 -76 -344 -76q-276 0 -432 162q-158 164 -158 447zM297 569q0 -205 100 -321q98 -113 281 -113 q166 0 293 82t219 242q61 108 92 227q33 127 33 236q0 209 -100.5 321.5t-280.5 112.5q-168 0 -293 -80q-126 -80 -221 -246q-61 -102 -92 -223q-31 -117 -31 -238z" />
<glyph unicode="P" horiz-adv-x="1234" d="M55 0l291 1493h467q205 0 311.5 -94t106.5 -279q0 -244 -158 -383q-156 -137 -444 -137h-254l-117 -600h-203zM408 766h254q174 0 264 88q92 89 92 252q0 106 -62 164q-59 57 -176 57h-264z" />
<glyph unicode="Q" horiz-adv-x="1611" d="M84 575q0 166 61 334q61 170 168 303q129 158 281 232q154 76 346 76q276 0 432 -162q158 -164 158 -440q0 -305 -164 -551q-166 -248 -432 -353l203 -278h-226l-172 237q-4 0 -11 -1t-11 -1h-37q-283 0 -438 160q-158 161 -158 444zM297 569q0 -205 100 -321 q98 -113 281 -113q166 0 293 82t219 242q61 108 92 227q33 127 33 236q0 209 -100.5 321.5t-280.5 112.5q-168 0 -293 -80q-126 -80 -221 -246q-61 -102 -92 -223q-31 -117 -31 -238z" />
<glyph unicode="R" horiz-adv-x="1421" d="M55 0l291 1493h455q205 0 317 -94q111 -92 111 -269q0 -158 -94 -270q-98 -117 -248 -143q63 -14 106 -74q41 -57 99 -235l127 -408h-213l-117 383q-47 150 -105 199q-59 49 -180 49h-223l-123 -631h-203zM414 797h260q156 0 248 84q94 86 94 221q0 111 -63.5 168 t-182.5 57h-254z" />
<glyph unicode="S" horiz-adv-x="1298" d="M12 66l41 208q119 -72 223 -104q115 -35 222 -35q188 0 302.5 84t114.5 219q0 92 -45 137q-47 47 -196 84l-121 31q-207 55 -282.5 125t-75.5 197q0 225 172 366.5t446 141.5q106 0 211 -19q96 -16 211 -57l-39 -197q-96 53 -201 82q-94 27 -192 27q-184 0 -289 -78 q-106 -80 -106 -211q0 -70 41 -111q39 -39 202 -82l121 -30q205 -51 285 -135q80 -82 80 -228q0 -229 -176 -368q-178 -141 -469 -142q-127 0 -238 23q-133 27 -242 72z" />
<glyph unicode="T" horiz-adv-x="1249" d="M88 1323l33 170h1263l-32 -170h-533l-256 -1323h-203l256 1323h-528z" />
<glyph unicode="U" horiz-adv-x="1497" d="M119 389q0 35 6 78q10 74 14 94l178 932h203l-176 -907q-14 -70 -16 -101q-4 -53 -4 -69q0 -137 77.5 -209t225.5 -72q195 0 301 107q109 109 153 344l176 907h203l-180 -932q-59 -303 -223 -446.5t-453 -143.5q-227 0 -354 113q-131 115 -131 305z" />
<glyph unicode="V" horiz-adv-x="1400" d="M160 1493h198l217 -1284l725 1284h220l-863 -1493h-235z" />
<glyph unicode="W" horiz-adv-x="2023" d="M197 1493h196l72 -1270l563 1270h225l74 -1270l557 1270h205l-664 -1493h-254l-69 1245l-559 -1245h-254z" />
<glyph unicode="X" horiz-adv-x="1402" d="M-88 0l698 803l-329 690h204l256 -539l463 539h236l-615 -713l371 -780h-203l-301 629l-545 -629h-235z" />
<glyph unicode="Y" horiz-adv-x="1249" d="M129 1493h217l279 -614l532 614h227l-677 -782l-138 -711h-202l137 711z" />
<glyph unicode="Z" horiz-adv-x="1402" d="M-45 0l29 154l1157 1169h-905l32 170h1172l-29 -154l-1157 -1169h952l-32 -170h-1219z" />
<glyph unicode="[" horiz-adv-x="798" d="M82 -270l354 1826h424l-29 -143h-239l-299 -1540h239l-26 -143h-424z" />
<glyph unicode="\" horiz-adv-x="688" d="M174 1493h170l193 -1683h-168z" />
<glyph unicode="]" horiz-adv-x="798" d="M-78 -270l27 143h239l299 1540h-237l26 143h424l-354 -1826h-424z" />
<glyph unicode="^" horiz-adv-x="1714" d="M217 936l543 557h196l543 -557h-201l-440 395l-440 -395h-201z" />
<glyph unicode="_" horiz-adv-x="1024" d="M-20 -340h1064v-143h-1064v143z" />
<glyph unicode="`" horiz-adv-x="1024" d="M389 1638h197l209 -374h-154z" />
<glyph unicode="a" horiz-adv-x="1253" d="M84 283q0 199 155.5 311.5t432.5 112.5h256l10 49q2 6 2 18q0 2 1 11.5t1 17.5q0 92 -72 139q-74 49 -204 49q-84 0 -185 -22q-82 -18 -194 -70l32 170q111 41 203 59q98 18 193 19q197 0 301 -86t104 -250q0 -35 -6 -78q-10 -74 -14 -94l-125 -639h-184l34 170 q-78 -100 -184 -150q-104 -49 -231 -49q-139 0 -234 88q-92 87 -92 224zM274 315q0 -90 55.5 -139t153.5 -49q150 0 262 109q111 109 148 286l8 41h-184q-225 0 -334 -61.5t-109 -186.5z" />
<glyph unicode="b" horiz-adv-x="1298" d="M74 0l303 1556h184l-119 -606q66 90 170 144q102 53 215 53q172 0 273 -117q102 -119 102 -313q0 -160 -59.5 -313.5t-169.5 -270.5q-72 -78 -166 -121q-90 -41 -197 -41q-109 0 -188 49q-82 49 -131 150l-33 -170h-184zM350 420q0 -135 66 -217q63 -78 180 -78 q86 0 162 41t129 119q58 83 92 190q35 111 35 209q0 147 -66 227q-68 82 -184 82q-90 0 -160 -41q-76 -45 -129 -121q-59 -84 -92 -192q-33 -106 -33 -219z" />
<glyph unicode="c" horiz-adv-x="1124" d="M94 401q0 172 62 320q59 143 186 264q84 82 197 121q117 41 247 41q86 0 154 -17q74 -18 158 -53l-37 -182q-57 43 -141 72q-74 25 -154 24q-88 0 -168 -30q-78 -31 -133 -89q-86 -86 -133 -204.5t-47 -241.5q0 -152 75 -225q78 -74 230 -74q72 0 162 23q78 18 178 69 l-35 -182q-82 -35 -164 -49q-92 -16 -174 -17q-224 0 -344 111q-119 110 -119 319z" />
<glyph unicode="d" horiz-adv-x="1298" d="M94 399q0 162 60 316q57 150 170 270q70 74 168 121q88 41 194 41q109 0 191 -51q80 -51 127 -150l120 610h185l-303 -1556h-185l35 168q-74 -98 -174 -147.5t-225 -49.5q-166 0 -264 115q-99 113 -99 313zM285 432q0 -143 65.5 -225t181.5 -82q90 0 160 41 q74 43 129 123q57 82 92 194q35 115 35 217q0 139 -65.5 217t-180.5 78q-86 0 -161.5 -41t-128.5 -118q-59 -84 -93 -193q-34 -115 -34 -211z" />
<glyph unicode="e" horiz-adv-x="1259" d="M94 399q0 175 62 326q59 147 184 268q78 74 186 115q104 39 228 39q188 0 303 -115q113 -113 112 -305q0 -46 -6 -98q-6 -49 -18 -113h-856q-2 -14 -5 -37l-3 -22q-2 -14 -2 -39q0 -138 86 -215q84 -76 241 -76q123 0 228 27q106 27 198 79l-35 -182q-86 -35 -204 -59 q-100 -20 -215 -21q-233 0 -358.5 110.5t-125.5 317.5zM324 659h661q4 20 4 33q0 6 1 17.5t1 17.5q0 121 -71.5 192.5t-194.5 71.5q-137 0 -241.5 -86t-159.5 -246z" />
<glyph unicode="f" horiz-adv-x="720" d="M139 0l191 977h-176l26 143h176l15 78q37 199 133 279q95 80 301 79h174l-29 -153h-176q-100 0 -145 -39t-68 -145l-20 -99h303l-27 -143h-303l-190 -977h-185z" />
<glyph unicode="g" horiz-adv-x="1298" d="M66 -367l34 179q72 -45 144 -66q74 -20 162 -20q174 0 288 96q111 92 148 274l16 84q-77 -89 -178 -135q-98 -45 -221 -45q-168 0 -266.5 112.5t-98.5 309.5q0 154 60 303q61 154 165 264q71 77 166 117q98 41 197 41q113 0 197 -53q86 -53 125 -148l32 174h185 l-191 -981q-55 -285 -211 -426q-154 -139 -418 -139q-102 0 -180 14q-89 16 -155 45zM285 440q0 -137 65 -213q65 -74 185 -73q176 0 292.5 159.5t116.5 395.5q0 139 -63 211q-66 74 -183 73q-72 0 -139 -28q-66 -29 -113 -82q-76 -84 -118 -203q-43 -117 -43 -240z" />
<glyph unicode="h" horiz-adv-x="1296" d="M72 0l303 1556h184l-119 -612q68 90 178 148q106 55 230 55q147 0 229 -80t82 -225q0 -23 -4 -76q-2 -23 -14 -90l-131 -676h-185l131 670q4 20 15 82q4 25 4 57q0 84 -53.5 131t-147.5 47q-150 0 -256 -100q-111 -104 -141 -266l-121 -621h-184z" />
<glyph unicode="i" horiz-adv-x="567" d="M72 0l219 1120h184l-219 -1120h-184zM330 1323l45 233h184l-45 -233h-184z" />
<glyph unicode="j" horiz-adv-x="567" d="M-231 -426l30 156h47q109 0 154 45t76 205l221 1140h184l-221 -1140l-2 -5q-39 -197 -84 -262t-131 -102t-205 -37h-69zM338 1323l45 233h184l-45 -233h-184z" />
<glyph unicode="k" horiz-adv-x="1185" d="M72 0l303 1556h184l-176 -907l631 471h239l-704 -536l514 -584h-223l-478 547l-106 -547h-184z" />
<glyph unicode="l" horiz-adv-x="567" d="M72 0l303 1556h184l-303 -1556h-184z" />
<glyph unicode="m" horiz-adv-x="1994" d="M72 0l219 1120h184l-35 -174q72 96 176 150q100 51 215 51q123 0 201 -63.5t94 -178.5q84 119 195 180.5t233 61.5q141 0 221 -82t80 -236q0 -20 -4 -73q-3 -40 -12 -80l-131 -676h-184l129 670q9 43 12 73q4 41 4 54q0 92 -49 141t-141 49q-137 0 -240 -100 q-104 -100 -135 -262l-123 -625h-184l131 670q8 35 12 69q4 41 4 56q0 92 -49 141q-51 51 -139 51q-139 0 -242 -100q-104 -100 -135 -262l-123 -625h-184z" />
<glyph unicode="n" horiz-adv-x="1296" d="M72 0l217 1120h184l-37 -176q76 96 185 150q111 53 227 53q147 0 229 -80t82 -225q0 -23 -4 -76q-2 -23 -14 -90l-131 -676h-185l131 670q4 20 15 82q4 25 4 57q0 84 -53.5 131t-147.5 47q-147 0 -256 -98q-104 -96 -139 -268l-123 -621h-184z" />
<glyph unicode="o" horiz-adv-x="1251" d="M94 424q0 125 39 248q43 133 103 213q96 133 221 198q121 63 276 64q193 0 309.5 -119t116.5 -311q0 -135 -39 -264q-41 -139 -102 -220q-98 -135 -219 -198.5t-279 -63.5q-199 0 -311 121q-115 125 -115 332zM285 430q0 -152 63.5 -227.5t192.5 -75.5q184 0 307 162 q121 160 121 409q0 143 -66 220q-65 74 -190 73q-104 0 -185 -49q-82 -51 -145 -147q-49 -78 -72 -168q-26 -103 -26 -197z" />
<glyph unicode="p" horiz-adv-x="1298" d="M-6 -426l301 1546h184l-33 -170q74 98 174.5 147.5t223.5 49.5q172 0 266 -113q96 -115 96 -315q0 -162 -59 -316q-57 -150 -170 -270q-70 -76 -166 -121q-88 -41 -197 -41q-121 0 -200 49q-82 49 -121 148l-115 -594h-184zM354 416q0 -139 63.5 -215t182.5 -76 q86 0 162 41q74 39 127 119q59 84 92 192q35 115 35 213q0 150 -64 225q-66 78 -184 78q-82 0 -156 -43q-78 -45 -133 -121q-58 -80 -92 -190q-33 -106 -33 -223z" />
<glyph unicode="q" horiz-adv-x="1298" d="M94 401q0 160 60 314q57 150 170 270q70 76 165 121q88 41 197 41q125 0 205 -49q78 -47 115 -148l32 168h185l-299 -1540h-185l115 590q-74 -98 -174 -148q-102 -49 -223 -49q-170 0 -266.5 114.5t-96.5 315.5zM285 428q0 -150 61 -225q61 -78 180 -78q174 0 297 166 t123 405q0 145 -63.5 221t-182.5 76q-86 0 -161 -41q-72 -39 -129 -118q-55 -78 -90 -193t-35 -213z" />
<glyph unicode="r" horiz-adv-x="841" d="M72 0l219 1120h184l-35 -174q74 98 174.5 149.5t216.5 51.5q23 0 60 -4q39 -4 57 -10l-35 -183q-23 12 -63 23q-33 8 -78 8q-147 0 -258 -111q-109 -109 -145 -299l-113 -571h-184z" />
<glyph unicode="s" horiz-adv-x="1064" d="M23 41l36 190q102 -53 199 -79q94 -27 188 -27q135 0 219.5 57.5t84.5 147.5q0 96 -222 155l-18 4l-64 17q-139 37 -204.5 98.5t-65.5 153.5q0 180 135 284.5t365 104.5q98 0 178 -14q94 -16 170 -46l-35 -174q-66 37 -153 60q-76 20 -168 20q-144 0 -228 -49t-84 -135 q0 -98 195 -152q14 -4 20 -6l60 -18q186 -53 246 -107q61 -55 61 -153q0 -178 -141 -289q-143 -113 -371 -113q-98 0 -186 17q-119 22 -217 53z" />
<glyph unicode="t" horiz-adv-x="802" d="M131 977l29 143h153l62 318h184l-61 -318h368l-28 -143h-367l-119 -608q-10 -53 -10 -58q-2 -14 -2 -35q0 -68 39 -94q41 -29 123 -28h186l-31 -154h-176q-168 0 -245 63q-80 63 -80 195q0 14 4 51t8 60l119 608h-156z" />
<glyph unicode="u" horiz-adv-x="1296" d="M117 276q0 27 6 74q8 61 14 94l131 676h185l-131 -669q-12 -70 -15 -84q-4 -45 -4 -58q0 -86 51 -131q53 -47 148 -47q150 0 256 100q109 102 141 269l123 620h184l-217 -1120h-184l37 176q-78 -100 -185 -151q-111 -53 -229 -54q-145 0 -229 80q-82 80 -82 225z" />
<glyph unicode="v" horiz-adv-x="1210" d="M147 1120h195l164 -952l536 952h195l-637 -1120h-248z" />
<glyph unicode="w" horiz-adv-x="1673" d="M174 1120h182l47 -901l418 901h213l62 -901l397 901h184l-512 -1120h-215l-55 928l-428 -928h-217z" />
<glyph unicode="x" horiz-adv-x="1210" d="M-53 0l551 590l-293 530h211l215 -405l375 405h223l-514 -549l315 -571h-211l-237 444l-412 -444h-223z" />
<glyph unicode="y" horiz-adv-x="1210" d="M-51 -426l31 154h106q76 0 131 43q53 41 121 163l57 107l-248 1079h195l186 -858l514 858h193l-727 -1224q-129 -217 -209 -269q-82 -53 -205 -53h-145z" />
<glyph unicode="z" horiz-adv-x="1073" d="M-6 0l33 168l843 805h-661l29 147h874l-33 -168l-843 -805h696l-29 -147h-909z" />
<glyph unicode="{" d="M248 537l28 147h62q141 0 207 55q66 57 96 205l47 244q25 125 62 194q39 74 90 111q45 33 114 49q63 14 203 14h82l-29 -143h-77q-137 0 -183 -39q-47 -41 -78 -190l-51 -252q-31 -158 -92 -232q-61 -72 -172 -94q74 -18 113 -69q41 -53 41 -127q0 -12 -4 -58 q-2 -18 -11 -69l-47 -244q-4 -18 -8 -59q-2 -18 -2 -50q0 -65 43 -92q45 -29 139 -28h78l-29 -144h-71q-188 0 -269 55q-82 57 -81 177q0 20 4 65q2 23 10 72l45 235q0 6 2 13q10 55 10 94q0 86 -49 123t-162 37h-61z" />
<glyph unicode="|" horiz-adv-x="688" d="M260 -483v2048h170v-2048h-170z" />
<glyph unicode="}" d="M14 -334l29 144h78q135 0 182 40.5t78 188.5l51 252q35 164 92 233q59 70 172 92q-74 18 -112 70q-41 53 -41 127q0 16 4 57q2 20 10 70l47 244q4 18 8 57q2 16 2 51q0 65 -43 92q-45 29 -139 29h-78l27 143h74q184 0 268 -55q82 -55 82 -176q0 -20 -4 -65.5t-10 -71.5 l-46 -236q0 -6 -2 -12q-10 -55 -10 -94q0 -86 49 -123t162 -37h62l-29 -147h-62q-141 0 -206.5 -55.5t-92.5 -204.5l-53 -244q-23 -115 -61 -197q-33 -70 -88 -108q-45 -33 -115 -49q-63 -14 -203 -15h-82z" />
<glyph unicode="~" horiz-adv-x="1714" d="M217 467v178q100 78 195 113q92 35 186 35q113 0 256 -60q6 -2 10 -3t6 -3q4 0 9.5 -3t13.5 -5q154 -61 248 -62q84 0 170 37q74 31 188 123v-178q-100 -78 -194 -113q-92 -35 -187 -34q-106 0 -256 59q-8 2 -16 6q-2 0 -10.5 3t-12.5 5q-154 61 -248 62q-90 0 -174 -39 q-92 -43 -184 -121z" />
<glyph unicode="&#xa2;" d="M152 401q0 305 178 514t458 230l56 285h100l-55 -285q66 -6 137 -23q57 -14 127 -45l-35 -182q-47 39 -108 59q-66 23 -152 35l-168 -862q72 6 139 27q72 20 158 65l-35 -182q-74 -31 -139 -45.5t-149 -20.5l-60 -284h-100l59 284q-195 12 -305 125q-106 108 -106 305z M340 426q0 -133 61.5 -207t188.5 -94l168 860q-174 -20 -297 -184q-121 -162 -121 -375z" />
<glyph unicode="&#xa3;" d="M49 0l33 170h235l91 465h-199l29 143h198l45 238q53 262 183 383q131 121 362 121q74 0 139 -15q78 -16 140 -45l-35 -182q-59 39 -127 61q-61 20 -129 21q-147 0 -221 -80q-76 -82 -115 -287l-41 -215h391l-29 -143h-391l-90 -465h537l-33 -170h-973z" />
<glyph unicode="&#xa5;" d="M92 455l23 123h417l11 51l-54 155h-333l24 123h266l-204 586h190l240 -700l512 700h194l-430 -586h262l-24 -123h-328l-113 -155l-10 -51h410l-23 -123h-411l-88 -455h-203l88 455h-416z" />
<glyph unicode="&#xa9;" horiz-adv-x="2048" d="M283 741q0 152 55 285t162 240q109 109 241 164t283 55t283 -55q133 -55 241 -164q106 -106 161.5 -239.5t55.5 -285.5q0 -154 -55 -282q-59 -135 -162 -240q-109 -109 -241 -164t-283 -55t-283 55q-133 55 -241 164q-102 104 -162 240q-55 128 -55 282zM383 741.5 q0 -135.5 47 -243.5q49 -113 143 -207q96 -96 207 -141q117 -47 244 -48q129 0 246 48q111 45 207 141q92 94 139 207q47 117 47 243q0 129 -47 246q-47 115 -139 207q-96 96 -207 141q-117 47 -246 47q-127 0 -244 -47q-111 -45 -207 -141q-94 -94 -143 -209 q-47 -108 -47 -243.5zM582 741q0 211 125 330q127 121 342 121q78 0 141 -14q80 -18 133 -41v-129q-63 33 -131 49q-70 16 -131 16q-147 0 -231.5 -88t-84.5 -244q0 -160 86 -245q88 -88 240 -88q59 0 125 16q63 16 127 49v-127q-68 -28 -135 -43q-63 -14 -139 -14 q-217 0 -342 122.5t-125 329.5z" />
<glyph unicode="&#xad;" horiz-adv-x="737" d="M92 479l33 164h539l-31 -164h-541z" />
<glyph unicode="&#xae;" horiz-adv-x="2048" d="M283 741q0 152 55 285t162 240q109 109 241 164t283 55t283 -55q133 -55 241 -164q106 -106 161.5 -239.5t55.5 -285.5q0 -154 -55 -282q-59 -135 -162 -240q-109 -109 -241 -164t-283 -55t-283 55q-133 55 -241 164q-102 104 -162 240q-55 128 -55 282zM383 741.5 q0 -135.5 47 -243.5q49 -113 143 -207q96 -96 207 -141q117 -47 244 -48q129 0 246 48q111 45 207 141q92 94 139 207q47 117 47 243q0 129 -47 246q-47 115 -139 207q-96 96 -207 141q-117 47 -246 47q-127 0 -244 -47q-111 -45 -207 -141q-94 -94 -143 -209 q-47 -108 -47 -243.5zM719 338v836h285q176 0 264 -60q86 -57 86 -180q0 -84 -54 -141q-52 -55 -147 -74q27 -10 57 -47q41 -49 80 -111l137 -223h-172l-129 209q-59 96 -96 121q-39 27 -90 26h-66v-356h-155zM874 795h123q111 0 154 30.5t43 106.5q0 78 -43 108.5 t-154 30.5h-123v-276z" />
<glyph unicode="&#xb4;" horiz-adv-x="1024" d="M516 1262l354 376h199l-399 -376h-154z" />
<glyph unicode="&#x2000;" horiz-adv-x="817" />
<glyph unicode="&#x2001;" horiz-adv-x="1636" />
<glyph unicode="&#x2002;" horiz-adv-x="817" />
<glyph unicode="&#x2003;" horiz-adv-x="1636" />
<glyph unicode="&#x2004;" horiz-adv-x="544" />
<glyph unicode="&#x2005;" horiz-adv-x="407" />
<glyph unicode="&#x2006;" horiz-adv-x="272" />
<glyph unicode="&#x2007;" horiz-adv-x="272" />
<glyph unicode="&#x2008;" horiz-adv-x="202" />
<glyph unicode="&#x2009;" horiz-adv-x="325" />
<glyph unicode="&#x200a;" horiz-adv-x="90" />
<glyph unicode="&#x2010;" horiz-adv-x="737" d="M92 479l33 164h539l-31 -164h-541z" />
<glyph unicode="&#x2011;" horiz-adv-x="737" d="M92 479l33 164h539l-31 -164h-541z" />
<glyph unicode="&#x2012;" horiz-adv-x="737" d="M92 479l33 164h539l-31 -164h-541z" />
<glyph unicode="&#x2013;" horiz-adv-x="1024" d="M86 489l29 144h823l-29 -144h-823z" />
<glyph unicode="&#x2014;" horiz-adv-x="2048" d="M86 489l29 144h1847l-29 -144h-1847z" />
<glyph unicode="&#x2018;" horiz-adv-x="649" d="M268 1001l35 173l225 319h129l-143 -319l-35 -173h-211z" />
<glyph unicode="&#x2019;" horiz-adv-x="649" d="M276 1001l144 320l35 172h211l-33 -172l-227 -320h-130z" />
<glyph unicode="&#x201c;" horiz-adv-x="1060" d="M268 1001l35 173l225 319h129l-143 -319l-35 -173h-211zM678 1001l35 173l225 319h129l-143 -319l-35 -173h-211z" />
<glyph unicode="&#x201d;" horiz-adv-x="1060" d="M276 1001l144 320l35 172h211l-35 -172l-225 -320h-130zM686 1001l143 320l35 172h211l-35 -172l-225 -320h-129z" />
<glyph unicode="&#x2022;" horiz-adv-x="1206" d="M307 762q0 123 86 209t213 86q123 0 209 -86t86 -209q0 -125 -86 -211t-211 -86t-211 86t-86 211z" />
<glyph unicode="&#x2026;" horiz-adv-x="2048" d="M133 0l49 254h211l-49 -254h-211zM815 0l49 254h211l-49 -254h-211zM1499 0l49 254h211l-49 -254h-211z" />
<glyph unicode="&#x202f;" horiz-adv-x="325" />
<glyph unicode="&#x205f;" horiz-adv-x="407" />
<glyph unicode="&#x20ac;" d="M-39 520l55 123h146q10 100 12 107q16 90 19 100h-173l56 123h151q98 279 256 411q160 135 389 136q106 0 195 -35q96 -39 176 -107l-33 -213q-83 101 -166 148q-84 47 -180 47q-144 0 -251.5 -98.5t-178.5 -288.5h520l-53 -123h-504q-10 -37 -20 -100q-10 -53 -12 -107 h444l-55 -123h-394q10 -197 88 -293t232 -96q111 0 205 43q96 43 198 139l-39 -239q-92 -51 -192 -76q-106 -27 -197 -27q-223 0 -354 146q-133 147 -141 403h-199z" />
<glyph unicode="&#x2122;" horiz-adv-x="2048" d="M295 1399v94h518v-94h-203v-484h-114v484h-201zM926 915v578h172l174 -256l164 256h170v-578h-113v484l-195 -303h-55l-203 303v-484h-114z" />
<glyph unicode="&#xe000;" horiz-adv-x="1120" d="M0 1120h1120v-1120h-1120v1120z" />
<glyph unicode="&#xfb01;" horiz-adv-x="1320" d="M139 0l191 977h-176l26 143h176l15 78q37 199 133 279q95 80 301 79h174l-29 -153h-176q-100 0 -145 -39t-68 -145l-20 -99h688l-219 -1120h-185l195 979h-506l-190 -979h-185zM1083 1323l45 233h185l-45 -233h-185z" />
<glyph unicode="&#xfb02;" horiz-adv-x="1320" d="M139 0l191 977h-176l26 143h176l15 78q37 197 133 279q95 80 301 79h508l-303 -1556h-185l279 1403h-330q-100 0 -145 -39t-68 -145l-20 -99h303l-27 -143h-303l-190 -977h-185z" />
<glyph unicode="&#xfb03;" horiz-adv-x="2045" d="M139 0l191 977h-176l26 143h176l17 78q37 188 139 272q104 86 293 86h174l-31 -153h-176q-100 0 -145 -39q-43 -37 -66 -145l-20 -99h506l16 78q37 188 139 272q37 31 76 48q84 39 215 38h174l-29 -153h-176q-100 0 -145 -39q-43 -37 -66 -145l-20 -99h690l-217 -1120 h-184l188 977h-504l-190 -977h-185l191 977h-506l-190 -977h-185zM1776 1321l45 233h184l-43 -233h-186z" />
<glyph unicode="&#xfb04;" horiz-adv-x="2045" d="M139 0l191 977h-176l26 143h176l17 78q37 188 139 272q104 86 293 86h174l-31 -153h-176q-100 0 -145 -39q-43 -37 -66 -145l-20 -99h506l16 78q37 188 139 272q104 86 291 86h512l-301 -1556h-184l272 1403h-330q-100 0 -145 -39q-43 -37 -66 -145l-20 -99h303l-27 -143 h-303l-190 -977h-185l191 977h-506l-190 -977h-185z" />
</font>
</defs>
</svg>
