<?xml version="1.0" standalone="no"?>
<!DOCTYPE svg PUBLIC "-//W3C//DTD SVG 1.1//EN" "http://www.w3.org/Graphics/SVG/1.1/DTD/svg11.dtd" >
<svg xmlns="http://www.w3.org/2000/svg">
<metadata>
This is a custom SVG webfont generated by Font Squirrel.
Copyright   : Copyright c 2003 by Bitstream Inc All Rights ReservedCopyright c 2006 by Tavmjong Bah All Rights ReservedDejaVu changes are in public domain
Foundry     : DejaVu fonts team
Foundry URL : httpdejavusourceforgenet
</metadata>
<defs>
<font id="webfontkge96hEp" horiz-adv-x="1280" >
<font-face units-per-em="2048" ascent="1556" descent="-492" />
<missing-glyph horiz-adv-x="638" />
<glyph unicode=" "  horiz-adv-x="638" />
<glyph unicode="&#x09;" horiz-adv-x="638" />
<glyph unicode="&#xa0;" horiz-adv-x="638" />
<glyph unicode="!" horiz-adv-x="839" d="M258 0v356h324v-356h-324zM258 920v573h324v-573l-45 -418h-234z" />
<glyph unicode="&#x22;" horiz-adv-x="958" d="M176 938v555h213v-555h-213zM571 938v555h213v-555h-213z" />
<glyph unicode="#" horiz-adv-x="1542" d="M125 383v215h295l63 274h-254v213h303l86 385h201l-86 -385h238l88 385h198l-88 -385h250v-213h-297l-61 -274h256v-215h-303l-86 -383h-201l86 383h-235l-89 -383h-198l86 383h-252zM621 598h237l64 274h-238z" />
<glyph unicode="$" d="M143 936q0 178 111 281q109 98 315 108v231h148v-227q123 -12 180 -24q98 -20 178 -45v-254q-80 39 -178 65q-78 23 -180 29v-287l26 -6q227 -39 322 -133q92 -92 92 -276.5t-110 -282.5q-109 -98 -330 -113v-303h-148v301q-109 6 -219 29q-92 18 -205 63v262 q111 -61 209 -90q119 -35 215 -37v312l-28 6q-215 43 -305 133q-93 92 -93 258zM428 971q0 -58 37 -92q37 -35 104 -43v262q-59 -2 -102 -39q-39 -33 -39 -88zM717 231q76 0 117 35q39 33 38 99q0 70 -36 102q-37 35 -119 43v-279z" />
<glyph unicode="%" horiz-adv-x="1845" d="M59 1114q0 188 96.5 297t262.5 109q168 0 264 -108.5t96 -297.5q0 -190 -96 -298.5t-264 -108.5q-166 0 -262.5 108.5t-96.5 298.5zM285 1114q0 -115 34 -178q34 -61 99 -62q66 0 100 62q35 63 35 178q0 119 -35 176q-37 61 -100 62q-65 0 -99 -62q-34 -63 -34 -176z M403 -29l840 1549h201l-842 -1549h-199zM1067 379q0 193 96 297q98 109 264 108q168 0 264.5 -108.5t96.5 -296.5q0 -186 -96 -299q-94 -109 -265 -109q-168 0 -264 109t-96 299zM1294 379q0 -113 35 -176q34 -61 98 -62q68 0 101 62q35 63 35 176t-35 176q-33 61 -101 61 q-65 0 -98 -61q-35 -63 -35 -176z" />
<glyph unicode="&#x26;" horiz-adv-x="1605" d="M111 467q0 145 63 258q63 111 211 219q-35 51 -55 107q-18 52 -19 110q0 162 115 260.5t303 98.5q88 0 172 -15q89 -15 184 -43v-278q-86 51 -159 71q-80 23 -148 23q-74 0 -108 -29q-37 -31 -37 -84q0 -37 20 -78q20 -43 66 -96l368 -450q45 66 72 157q25 86 31 197h278 q-16 -186 -63 -324q-49 -141 -139 -249l264 -322h-381l-88 109q-96 -72 -199 -105q-100 -33 -223 -33q-238 0 -383 137.5t-145 358.5zM422 506q0 -119 76 -197q77 -80 184 -80q63 0 113 21q52 22 98 61l-352 432q-55 -43 -88 -106q-31 -59 -31 -131z" />
<glyph unicode="'" horiz-adv-x="563" d="M176 938v555h213v-555h-213z" />
<glyph unicode="(" horiz-adv-x="841" d="M158 641q0 219 67 444q70 233 203 469h266q-113 -236 -172 -464q-57 -223 -57 -447q0 -225 57 -448q61 -242 172 -465h-266q-141 252 -205 469q-65 225 -65 442z" />
<glyph unicode=")" horiz-adv-x="841" d="M147 -270q113 236 172 465q59 231 60 448q0 215 -60 447q-59 229 -172 464h269q139 -248 202 -469q66 -227 66 -444t-65.5 -442.5t-202.5 -468.5h-269z" />
<glyph unicode="*" horiz-adv-x="962" d="M37 870l301 174l-301 173l67 141l302 -182v344h153v-344l299 182l70 -141l-297 -173l297 -174l-70 -141l-299 184v-344h-153v344l-302 -184z" />
<glyph unicode="+" horiz-adv-x="1542" d="M195 524v236h471v524h213v-524h471v-236h-471v-524h-213v524h-471z" />
<glyph unicode="," horiz-adv-x="698" d="M98 -291l90 373v305h324v-305l-221 -373h-193z" />
<glyph unicode="-" horiz-adv-x="763" d="M100 444v291h566v-291h-566z" />
<glyph unicode="." horiz-adv-x="698" d="M188 0v387h324v-387h-324z" />
<glyph unicode="/" horiz-adv-x="671" d="M0 -190l473 1683h201l-475 -1683h-199z" />
<glyph unicode="0" d="M88 745.5q0 372.5 143.5 573.5t409.5 201t409.5 -201t143.5 -573.5t-143.5 -573.5t-409.5 -201t-409.5 201t-143.5 573.5zM434 747.5q0 -274.5 49 -399.5q45 -115 158 -115q111 0 160 115q47 113 47 400q0 279 -47 395q-47 115 -160 114q-111 0 -158 -114 q-49 -121 -49 -395.5z" />
<glyph unicode="1" d="M209 1159v262l311 72h330v-1227h305v-266h-940v266h307v965z" />
<glyph unicode="2" d="M145 0v283l492 481q66 66 96 129q33 70 33 131q0 106 -63.5 169.5t-170.5 63.5q-84 0 -176 -38q-104 -45 -206 -115v328q121 45 231 65q119 23 223 23q244 0 375 -117q133 -117 133 -330q0 -123 -55 -227q-51 -98 -240 -283l-287 -280h592v-283h-977z" />
<glyph unicode="3" d="M123 45v297q96 -53 192 -82q92 -27 191 -27q135 0 211 54q72 51 71 151q0 101 -73 154q-76 53 -223 53h-138v248h146q131 0 194.5 45t63.5 139q0 86 -62 133q-63 47 -176 47q-88 0 -170 -20q-72 -18 -170 -63v282q113 33 205 47q109 16 197 17q266 0 393 -95 q129 -94 129 -288q0 -132 -62 -215q-61 -82 -184 -117q137 -41 207 -135q72 -96 72 -246q0 -221 -154 -338q-152 -115 -446 -115q-102 0 -207 19q-107 18 -207 55z" />
<glyph unicode="4" d="M84 272v330l537 891h385v-942h192v-279h-192v-272h-326v272h-596zM299 551h381v625z" />
<glyph unicode="5" d="M141 70v303q111 -71 209 -105q100 -35 187 -35q125 0 198 68q72 66 72 186.5t-72 186.5q-74 68 -198 67q-70 0 -160 -22.5t-182 -65.5v840h862v-283h-586v-231q40 12 80 18q39 6 84 7q246 0 383 -136q135 -133 135 -381q0 -244 -147 -378q-150 -137 -414 -138 q-117 0 -227 25q-115 25 -224 74z" />
<glyph unicode="6" d="M115 725q0 371 168 582t458 211q88 0 181 -17q84 -14 174 -47v-276q-88 47 -162 67.5t-148 20.5q-156 0 -241 -95q-84 -94 -101 -284q58 49 129 74q70 25 152 24q207 0 332 -133q127 -137 127 -352q0 -242 -141.5 -385.5t-378.5 -143.5q-261 0 -406 197 q-143 195 -143 557zM485 475q0 -133 45 -196q47 -66 137.5 -66t137.5 66q45 63 45 196t-45 197q-47 66 -137 65.5t-138 -65.5q-45 -64 -45 -197z" />
<glyph unicode="7" d="M123 1210v283h1014v-217l-525 -1276h-338l496 1210h-647z" />
<glyph unicode="8" d="M113 420q0 145 69 239q68 92 207 136q-123 39 -184 127q-63 88 -64 211q0 190 127 288q125 98 373 99q244 0 371 -98.5t127 -288.5q0 -125 -62 -211q-61 -88 -184 -127q135 -43 205 -136q70 -94 69 -239q0 -223 -131 -336t-395 -113q-262 0 -395 113t-133 336zM440 440 q0 -111 52 -168q53 -59 149 -59q94 0 147.5 59.5t53.5 167.5q0 111 -54 170q-51 57 -147 57.5t-149 -59.5q-52 -57 -52 -168zM469 1094q0 -86 45 -138q41 -47 127 -47t127 47q43 49 43 138q0 90 -43 137t-127 47q-86 0 -127 -47q-45 -51 -45 -137z" />
<glyph unicode="9" d="M94 987q0 242 142 385q141 145 378 146q262 0 408 -197q143 -195 143 -557q0 -371 -168 -582t-462 -211q-100 0 -181 15q-82 14 -170 47v276q90 -47 158 -65q74 -20 150 -21q156 0 241 96q88 96 103 283q-68 -53 -131 -76q-70 -25 -150 -24q-207 0 -334 133t-127 352z M428 1014q0 -131 47 -196.5t137 -65.5t138 65q45 63 45 196.5t-45 196.5q-47 66 -137.5 66t-137.5 -65.5t-47 -196.5z" />
<glyph unicode=":" horiz-adv-x="735" d="M207 0v387h323v-387h-323zM207 733v387h323v-387h-323z" />
<glyph unicode=";" horiz-adv-x="735" d="M117 -291l90 373v305h323v-305l-223 -373h-190zM207 733v387h323v-387h-323z" />
<glyph unicode="&#x3c;" horiz-adv-x="1542" d="M195 524v236l1155 463v-250l-869 -332l869 -330v-250z" />
<glyph unicode="=" horiz-adv-x="1542" d="M195 295v237h1155v-237h-1155zM195 752v235h1155v-235h-1155z" />
<glyph unicode="&#x3e;" horiz-adv-x="1542" d="M195 61v250l870 330l-870 332v250l1155 -463v-236z" />
<glyph unicode="?" horiz-adv-x="1067" d="M127 1124v314q86 35 199 61q84 20 174 21q217 0 333.5 -98.5t116.5 -291.5q0 -104 -35 -176q-35 -74 -120 -166l-58 -57q-59 -59 -80 -100q-18 -37 -18 -82v-45h-326v49q0 86 29 145q29 61 127 162l57 58q45 45 74 98q25 46 25 92q0 68 -43 109q-45 41 -121 40 q-70 0 -158 -34q-82 -33 -176 -99zM313 0v356h326v-356h-326z" />
<glyph unicode="@" horiz-adv-x="1841" d="M123 543q0 188 59 348q59 162 174 289q117 127 265 192q151 68 313 68q201 0 366.5 -86t276.5 -246q66 -94 100 -213q35 -117 35 -240q0 -274 -145 -422q-147 -150 -416 -149h-35v154q-29 -74 -86 -111q-59 -39 -139 -39q-158 0 -252 125q-96 127 -96 324q0 203 96 325 q98 125 252 125q76 0 139 -41q57 -37 86 -110v131h189v-693q113 18 176 119t63 258q0 94 -26 187q-25 86 -78 161q-88 125 -215 189q-131 66 -277 65q-104 0 -200 -30q-94 -31 -177 -90q-133 -96 -206.5 -254t-73.5 -336q0 -156 47 -279q51 -135 139 -231q86 -96 207 -150 q115 -51 248 -51q111 0 227 47q115 47 195 127l96 -162q-111 -96 -246 -149q-129 -51 -270 -51q-164 0 -313 65q-152 68 -265 191q-113 125 -174 290q-59 160 -59 353zM748 539q0 -123 47 -195q45 -70 129 -70q80 0 127 72q49 76 49 193q0 121 -49 192q-49 70 -129 70 q-82 0 -127 -70q-47 -71 -47 -192z" />
<glyph unicode="A" horiz-adv-x="1425" d="M8 0l500 1493h412l497 -1493h-348l-84 272h-543l-86 -272h-348zM528 549h369l-182 594z" />
<glyph unicode="B" horiz-adv-x="1402" d="M170 0v1493h518q281 0 406 -94q127 -96 127 -301q0 -106 -47 -185q-47 -80 -134 -114q115 -39 174 -133q61 -98 62 -238q0 -213 -133 -322q-131 -106 -400 -106h-573zM516 262h203q104 0 157.5 49t53.5 148q0 96 -53.5 145t-157.5 49h-203v-391zM516 915h191q84 0 124 39 q43 41 43 119q0 77 -43 117q-45 41 -124 41h-191v-316z" />
<glyph unicode="C" horiz-adv-x="1351" d="M92 745.5q0 356.5 196.5 565.5t530.5 209q117 0 217 -27q98 -27 199 -84v-309q-96 72 -190.5 106.5t-196.5 34.5q-186 0 -293 -131q-104 -129 -104 -365q0 -233 104 -362q109 -133 293 -133q102 0 196.5 34.5t190.5 106.5v-309q-92 -53 -199 -82q-109 -29 -217 -29 q-334 0 -530.5 209t-196.5 565.5z" />
<glyph unicode="D" horiz-adv-x="1529" d="M170 0v1493h365q305 0 456 -49q150 -49 256 -164q95 -101 142 -233q45 -129 45 -299q0 -172 -45 -302q-46 -132 -142 -233q-104 -113 -260 -164q-152 -49 -452 -49h-365zM516 291h123q215 0 325.5 116.5t110.5 340.5q0 221 -110.5 337.5t-325.5 116.5h-123v-911z" />
<glyph unicode="E" horiz-adv-x="1257" d="M170 0v1493h934v-291h-588v-278h553v-291h-553v-342h608v-291h-954z" />
<glyph unicode="F" horiz-adv-x="1257" d="M170 0v1493h934v-291h-588v-278h553v-291h-553v-633h-346z" />
<glyph unicode="G" horiz-adv-x="1511" d="M92 745q0 362 199 568q201 207 549 207q137 0 256 -27q121 -27 231 -84v-309q-121 76 -223 106q-115 35 -223 35q-209 0 -319.5 -129t-110.5 -367q0 -240 106 -366q108 -129 307 -129q39 0 101 8q43 6 84 23v290h-211v258h538v-718q-129 -70 -268 -105q-143 -35 -289 -35 q-334 0 -530.5 209t-196.5 565z" />
<glyph unicode="H" horiz-adv-x="1540" d="M170 0v1493h346v-569h510v569h346v-1493h-346v633h-510v-633h-346z" />
<glyph unicode="I" horiz-adv-x="684" d="M170 0v1493h346v-1493h-346z" />
<glyph unicode="J" horiz-adv-x="684" d="M-104 -119h55q106 0 162 68q57 70 57 196v1348h346v-1348q0 -276 -137 -417q-135 -137 -412 -138h-71v291z" />
<glyph unicode="K" horiz-adv-x="1427" d="M170 0v1493h346v-545l500 545h401l-647 -707l715 -786h-434l-535 588v-588h-346z" />
<glyph unicode="L" horiz-adv-x="1173" d="M170 0v1493h346v-1202h608v-291h-954z" />
<glyph unicode="M" horiz-adv-x="1832" d="M170 0v1493h440l305 -799l310 799h438v-1493h-328v1092l-309 -805h-219l-309 805v-1092h-328z" />
<glyph unicode="N" horiz-adv-x="1540" d="M170 0v1493h385l489 -1024v1024h328v-1493h-387l-487 1024v-1024h-328z" />
<glyph unicode="O" horiz-adv-x="1564" d="M92 745.5q0 364.5 184.5 569.5t505.5 205q324 0 508.5 -205t184.5 -569.5t-184.5 -569.5t-508.5 -205q-322 0 -506 205t-184 569.5zM451 745.5q0 -235.5 86 -364.5q88 -131 245 -131q160 0 248 131q86 129 86 364.5t-86 364.5q-88 131 -248 131q-158 0 -245 -131 q-86 -129 -86 -364.5z" />
<glyph unicode="P" horiz-adv-x="1349" d="M170 0v1493h573q256 0 396 -127q137 -125 137 -360.5t-137 -360.5q-139 -127 -396 -127h-227v-518h-346zM516 797h191q100 0 155.5 55t55.5 153.5t-55.5 153.5t-155.5 55h-191v-417z" />
<glyph unicode="Q" horiz-adv-x="1564" d="M92 745q0 365 184.5 570t505.5 205q328 0 510 -203q182 -205 183 -572q0 -252 -97 -434q-94 -180 -278 -274l270 -336h-330l-221 272h-26q-332 0 -516.5 202.5t-184.5 569.5zM451 745q0 -242 83.5 -368.5t247.5 -126.5q160 0 248 131q86 129 86 364.5t-86 364.5 q-88 131 -248 131q-158 0 -245 -131q-86 -129 -86 -365z" />
<glyph unicode="R" horiz-adv-x="1417" d="M170 0v1493h528q266 0 389 -98.5t123 -313.5q0 -150 -63 -243q-61 -92 -195 -140q76 -20 129 -82q53 -63 113 -192l188 -424h-368l-164 371q-51 117 -100 153q-53 41 -136 41h-98v-565h-346zM516 831h146q111 0 155 46q47 47 47 147q0 102 -47 145q-49 45 -155 45h-146 v-383z" />
<glyph unicode="S" horiz-adv-x="1325" d="M131 1057q0 223 131 344q127 119 373 119q111 0 227 -19q115 -18 242 -55v-316q-106 53 -215 82t-201 29q-121 0 -182 -39q-59 -37 -60 -117q0 -61 39 -94t148 -57l145 -33q223 -49 320 -151q94 -100 94 -291q0 -248 -131 -367q-133 -121 -404 -121q-131 0 -256 27 q-129 28 -258 80v325q121 -72 250 -114q117 -39 232 -39q113 0 174 43q59 41 59 119q0 72 -41 108q-39 37 -164 68l-133 33q-203 49 -295 153q-94 107 -94 283z" />
<glyph unicode="T" horiz-adv-x="1255" d="M8 1202v291h1239v-291h-444v-1202h-348v1202h-447z" />
<glyph unicode="U" horiz-adv-x="1495" d="M170 598v895h346v-895q0 -184 55.5 -264t176.5 -80q123 0 178 80t55 264v895h346v-895q0 -319 -143 -471q-145 -156 -436 -156t-437 156q-141 149 -141 471z" />
<glyph unicode="V" horiz-adv-x="1425" d="M8 1493h348l359 -1102l354 1102h348l-497 -1493h-412z" />
<glyph unicode="W" horiz-adv-x="2031" d="M55 1493h332l231 -1085l232 1085h334l229 -1085l234 1085h329l-317 -1493h-399l-244 1135l-242 -1135h-399z" />
<glyph unicode="X" horiz-adv-x="1419" d="M35 0l467 762l-449 731h363l293 -481l295 481h362l-448 -731l466 -762h-360l-315 510l-312 -510h-362z" />
<glyph unicode="Y" horiz-adv-x="1333" d="M-18 1493h378l308 -532l305 532h381l-512 -864v-629h-348v629z" />
<glyph unicode="Z" horiz-adv-x="1335" d="M84 0v233l721 969h-701v291h1129v-233l-721 -969h741v-291h-1169z" />
<glyph unicode="[" horiz-adv-x="841" d="M158 -270v1826h559v-225h-252v-1376h252v-225h-559z" />
<glyph unicode="\" horiz-adv-x="671" d="M0 1493h199l475 -1683h-201z" />
<glyph unicode="]" horiz-adv-x="841" d="M125 -45h254v1376h-254v225h559v-1826h-559v225z" />
<glyph unicode="^" horiz-adv-x="1542" d="M186 936l476 557h221l475 -557h-217l-369 301l-369 -301h-217z" />
<glyph unicode="_" horiz-adv-x="919" d="M0 -293h922v-190h-922v190z" />
<glyph unicode="`" horiz-adv-x="919" d="M86 1638h254l254 -376h-176z" />
<glyph unicode="a" horiz-adv-x="1241" d="M80 336q0 199 121 289q123 92 383 92h190v28q0 86 -61 125q-59 39 -187 39q-98 0 -192 -22q-84 -20 -166 -70v273q106 29 207 43q98 14 209 14q276 0 395 -119q121 -121 121 -389v-639h-326v166q-63 -100 -145 -147.5t-199 -47.5q-156 0 -254 101q-96 98 -96 264z M403 354q0 -66 41 -106q39 -39 115 -39q94 0 154 72q61 74 61 182v41h-168q-98 0 -151 -37q-52 -37 -52 -113z" />
<glyph unicode="b" horiz-adv-x="1318" d="M156 0v1556h321v-600q66 96 148 143.5t186 47.5q186 0 305 -164q121 -168 121 -424t-121 -424q-119 -164 -305 -164q-104 0 -186 47.5t-148 143.5v-162h-321zM477 559q0 -158 55 -244q53 -84 158 -84t160 84q53 80 53 244t-53 244q-55 84 -159.5 84t-158.5 -84 q-55 -86 -55 -244z" />
<glyph unicode="c" horiz-adv-x="1091" d="M80 559q0 276 153.5 432t425.5 156q74 0 156 -16.5t154 -45.5v-292q-66 49 -131 73q-68 25 -138 25q-135 0 -211 -88q-74 -86 -73.5 -244t73.5 -244q76 -88 211 -88q76 0 144 25q66 25 125 74v-293q-76 -31 -154 -47q-72 -14 -156 -15q-272 0 -425.5 156t-153.5 432z" />
<glyph unicode="d" horiz-adv-x="1318" d="M84 559q0 260 119 424t305 164q104 0 186 -47t148 -144v600h323v-1556h-323v162q-70 -100 -148 -145.5t-186 -45.5q-186 0 -305 164t-119 424zM418 559q0 -164 53 -244q55 -84 157.5 -84t157.5 84q55 82 55.5 244t-55.5 244q-55 84 -157.5 84t-157.5 -84 q-53 -80 -53 -244z" />
<glyph unicode="e" horiz-adv-x="1249" d="M80 559q0 276 147 430q152 158 412 158q238 0 379 -160q143 -162 143 -424v-102h-753q12 -125 81.5 -188.5t196.5 -63.5q104 0 209 33q102 33 217 102v-276q-104 -45 -227 -72q-115 -25 -230 -25q-273 0 -424 154q-151 155 -151 434zM412 682h417q0 100 -53 163.5 t-139 63.5q-92 0 -151.5 -59t-73.5 -168z" />
<glyph unicode="f" horiz-adv-x="800" d="M35 864v256h160v78q0 184 92 270q94 88 284 88h246v-235h-178q-68 0 -94.5 -26.5t-26.5 -96.5v-78h275v-256h-275v-864h-323v864h-160z" />
<glyph unicode="g" horiz-adv-x="1318" d="M84 573q0 254 119 412q121 160 305 160q109 0 186.5 -45t147.5 -146v166h323v-1007q0 -270 -153 -412q-156 -143 -447 -143q-88 0 -182 16q-86 14 -176 49v279q76 -49 166 -80q78 -27 162 -27q160 0 233 78q74 77 74 240v77q-70 -100 -148 -145t-186 -45 q-186 0 -305 161.5t-119 411.5zM418 573q0 -156 53 -233q55 -80 158 -80q100 0 155 82q57 86 57.5 231.5t-57.5 231.5q-55 82 -155.5 82t-155.5 -82q-55 -85 -55 -232z" />
<glyph unicode="h" horiz-adv-x="1310" d="M156 0v1556h321v-600q74 98 156 144q84 47 180 47q176 0 264 -119q90 -121 90 -346v-682h-323v111v409q0 147 -6 203q-6 57 -21 80q-20 39 -51 55q-34 18 -74 19q-98 0 -157 -86q-57 -84 -58 -240v-551h-321z" />
<glyph unicode="i" horiz-adv-x="630" d="M156 0v1120h321v-1120h-321zM156 1264v292h321v-292h-321z" />
<glyph unicode="j" horiz-adv-x="630" d="M-61 -207h57q92 0 125 45q35 47 35 182v1100h321v-1100q0 -227 -96 -344q-98 -119 -283 -118h-159v235zM156 1264v292h321v-292h-321z" />
<glyph unicode="k" horiz-adv-x="1224" d="M156 0v1556h321v-847l371 411h375l-494 -514l533 -606h-392l-393 467v-467h-321z" />
<glyph unicode="l" horiz-adv-x="630" d="M156 0v1556h321v-1556h-321z" />
<glyph unicode="m" horiz-adv-x="1918" d="M154 0v1120h323v-164q57 94 135 144q74 47 170 47q104 0 185 -55q84 -57 123 -158q59 100 145 158q83 55 184 55q172 0 264.5 -119t92.5 -346v-682h-326v584q0 4 1 12t1 14v41q0 120 -31 172q-31 53 -102 54q-92 0 -141 -84q-47 -82 -52 -242v-551h-323v584 q0 182 -31 239q-29 53 -102 54q-94 0 -142 -84q-51 -90 -51 -242v-551h-323z" />
<glyph unicode="n" horiz-adv-x="1310" d="M156 0v1120h321v-164q74 98 156 144q84 47 180 47q176 0 264 -119q90 -121 90 -346v-682h-323v111v411q0 145 -6 201q-6 57 -21 80q-20 39 -51 55q-34 18 -74 19q-98 0 -157 -86q-57 -84 -58 -240v-551h-321z" />
<glyph unicode="o" horiz-adv-x="1265" d="M80 559q0 276 147.5 432t407.5 156q258 0 405.5 -155.5t147.5 -432t-147.5 -432.5t-405.5 -156q-260 0 -407.5 156t-147.5 432zM416 559q0 -160 55 -246t164 -86q104 0 160 86q57 90 57 246t-57 246q-55 86 -160 86q-109 0 -164 -86t-55 -246z" />
<glyph unicode="p" horiz-adv-x="1318" d="M156 -426v1546h321v-164q66 96 148 143.5t186 47.5q186 0 305 -164q121 -168 121 -424t-121 -424q-119 -164 -305 -164q-104 0 -186 47.5t-148 143.5v-588h-321zM477 559q0 -158 55 -244q53 -84 158 -84t160 84q53 80 53 244t-53 244q-55 84 -159.5 84t-158.5 -84 q-55 -86 -55 -244z" />
<glyph unicode="q" horiz-adv-x="1318" d="M84 559q0 260 119 422q121 164 305 164q109 0 186.5 -45t147.5 -146v166h323v-1546h-323v588q-70 -100 -148 -145.5t-186 -45.5q-186 0 -305 164t-119 424zM418 559q0 -164 53 -244q55 -84 157.5 -84t157.5 84q55 82 55.5 244t-55.5 244q-55 84 -157.5 84t-157.5 -84 q-53 -80 -53 -244z" />
<glyph unicode="r" horiz-adv-x="907" d="M156 0v1120h321v-184q61 111 141 160q84 51 195 51q4 0 16.5 -1t18.5 -1q18 0 55 -6v-324q-51 27 -84 33q-47 10 -84 10q-123 0 -190 -88q-68 -90 -68 -254v-516h-321z" />
<glyph unicode="s" horiz-adv-x="1095" d="M94 797q0 178 110.5 264t338.5 86q94 0 186 -14.5t213 -47.5v-272q-96 45 -199 72q-96 25 -182 24q-90 0 -137 -26q-43 -25 -43 -78q0 -45 33 -66q37 -23 121 -34l57 -9q244 -33 332 -114q86 -80 86 -252q0 -180 -119 -269q-121 -90 -354 -90q-111 0 -207 17 q-102 18 -219 53v272q96 -53 198 -77q111 -27 205 -27q90 0 141 29q49 28 50 86q0 47 -33 71q-35 25 -131 37l-58 8q-215 31 -301 111q-88 82 -88 246z" />
<glyph unicode="t" horiz-adv-x="880" d="M25 864v256h159v318h324v-318h332v-256h-332v-475q0 -80 26.5 -106.5t110.5 -26.5h166v-256h-276q-190 0 -271 88q-80 89 -80 301v475h-159z" />
<glyph unicode="u" horiz-adv-x="1310" d="M143 436v684h326v-112q0 -27 -1 -103t-1 -125v-184q0 -137 6 -195q6 -61 21 -86q25 -37 53 -55q31 -18 71 -18q101 0 160 86q57 84 58 239v553h321v-1120h-321v162q-74 -98 -156 -144q-84 -47 -178 -47q-174 0 -266.5 119t-92.5 346z" />
<glyph unicode="v" horiz-adv-x="1200" d="M29 1120h321l250 -774l252 774h322l-396 -1120h-354z" />
<glyph unicode="w" horiz-adv-x="1701" d="M66 1120h313l168 -772l170 772h268l170 -764l170 764h313l-266 -1120h-350l-170 770l-170 -770h-352z" />
<glyph unicode="x" horiz-adv-x="1187" d="M29 0l381 573l-365 547h342l207 -332l209 332h340l-365 -545l383 -575h-342l-225 354l-225 -354h-340z" />
<glyph unicode="y" horiz-adv-x="1200" d="M23 1120h321l272 -760l230 760h321l-424 -1226q-66 -190 -147 -261q-88 -76 -225 -75h-187v235h101q82 0 121 29q35 27 57 104l8 31z" />
<glyph unicode="z" horiz-adv-x="1071" d="M84 0v250l530 614h-510v256h881v-250l-530 -614h530v-256h-901z" />
<glyph unicode="{" horiz-adv-x="1310" d="M229 494v223h56q127 0 176 57q49 58 49 209v205q0 195 90 280q92 88 287 88h194v-225h-61q-126 0 -166 -43q-39 -41 -39 -186v-166q0 -158 -39 -227q-41 -72 -139 -97q98 -27 139 -98q39 -70 39 -227v-166q0 -145 39 -187q40 -43 166 -43h61v-225h-194q-199 0 -287 88 q-90 90 -90 281v192q0 151 -49 209q-49 57 -176 58h-56z" />
<glyph unicode="|" horiz-adv-x="671" d="M233 -483v2048h205v-2048h-205z" />
<glyph unicode="}" horiz-adv-x="1310" d="M229 -109h64q125 0 164 43q39 41 39 187v166q0 156 41 227q40 71 141 98q-100 25 -141 96.5t-41 227.5v166q0 145 -39 186q-39 43 -164 43h-64v225h197q195 0 287 -88q90 -86 90 -280v-205q0 -154 47 -209q49 -57 176 -57h55v-223h-55q-127 0 -176 -58q-47 -55 -47 -209 v-192q0 -190 -90 -281q-88 -88 -287 -88h-197v225z" />
<glyph unicode="~" horiz-adv-x="1542" d="M195 434v244q100 82 178 115q82 35 166 34q94 0 225 -59q10 -4 18 -8l21 -8q139 -61 223 -62q77 0 154 37q80 37 170 123v-244q-96 -82 -176 -114q-82 -35 -168 -35q-98 0 -226 57q-4 2 -9 5t-9 5q-2 0 -9.5 3t-11.5 5q-141 61 -223 61.5t-158 -38.5q-81 -43 -165 -121z " />
<glyph unicode="&#xa2;" d="M158 575q0 248 121 390q125 147 354 180v287h145v-287q74 -4 131 -17q59 -14 135 -43v-292q-70 49 -131 73q-65 25 -122 25h-13v-664q74 0 148 27q63 23 118 72v-293q-68 -29 -139 -45q-70 -16 -119 -17h-8v-284h-145v288q-237 40 -357 191q-118 149 -118 409zM492 559.5 q0 -106.5 34 -182.5q33 -72 107 -117v598q-74 -45 -107 -117q-34 -75 -34 -181.5z" />
<glyph unicode="&#xa3;" d="M113 0v266h204v326h-176v239h176v170q0 274 113 396q114 123 363 123q83 0 165 -13q72 -10 160 -41v-286q-63 39 -129 57q-76 20 -135 20q-104 0 -158 -63q-51 -59 -51 -193v-170h336v-239h-336v-326h485v-266h-1017z" />
<glyph unicode="&#xa5;" d="M23 1493h360l258 -461l260 461h361l-304 -539h265v-192h-367l-43 -86v-66h410v-194h-410v-416h-344v416h-408v194h408v66l-43 86h-365v192h263z" />
<glyph unicode="&#xa9;" horiz-adv-x="1841" d="M256 741q0 158 47 285q49 132 148 240q102 113 215 164q121 55 256 55t254 -55q117 -53 217 -164q98 -108 147 -240q47 -127 47 -285q0 -160 -47 -282q-51 -135 -147 -240q-100 -111 -217 -164q-119 -55 -254.5 -55t-255.5 55q-113 51 -215 164q-96 104 -148 240 q-47 122 -47 282zM391 741q0 -123 39 -225q40 -104 117 -190t172 -129t203 -43q111 0 202 43q98 45 172 129q77 86 117 190q39 102 39 225t-39 226q-40 104 -117 190q-78 88 -172 131q-92 43 -202.5 43t-202.5 -43q-88 -41 -172 -131q-77 -86 -117 -190q-39 -103 -39 -226z M541 741.5q0 192.5 114 311.5q115 117 303 116q55 0 121 -10q47 -8 113 -33v-215q-45 31 -102 54q-49 18 -103 18q-100 0 -157.5 -63.5t-57.5 -178t57.5 -178t157.5 -63.5q58 0 111 18q47 16 94 53v-213q-61 -23 -119 -34q-49 -10 -115 -11q-188 0 -303 117 q-114 119 -114 311.5z" />
<glyph unicode="&#xad;" horiz-adv-x="763" d="M100 444v291h566v-291h-566z" />
<glyph unicode="&#xae;" horiz-adv-x="1841" d="M256 741q0 158 47 285q49 132 148 240q102 113 215 164q121 55 256 55t254 -55q117 -53 217 -164q98 -108 147 -240q47 -127 47 -285q0 -160 -47 -282q-51 -135 -147 -240q-100 -111 -217 -164q-119 -55 -254.5 -55t-255.5 55q-113 51 -215 164q-96 104 -148 240 q-47 122 -47 282zM391 741q0 -123 39 -225q40 -104 117 -190t172 -129t203 -43q111 0 202 43q98 45 172 129q77 86 117 190q39 102 39 225t-39 226q-40 104 -117 190q-78 88 -172 131q-92 43 -202.5 43t-202.5 -43q-88 -41 -172 -131q-77 -86 -117 -190q-39 -103 -39 -226z M647 338v836h256q156 0 238 -60q78 -57 78 -180q0 -84 -48 -141q-45 -55 -133 -74q37 -22 68 -62q33 -43 59 -98l99 -221h-205l-96 213q-29 66 -62 111q-25 33 -51 32h-10v-356h-193zM840 829h30q72 0 107 27t35 78q0 53 -35 77.5t-107 24.5h-30v-207z" />
<glyph unicode="&#xb4;" horiz-adv-x="919" d="M328 1262l254 376h256l-332 -376h-178z" />
<glyph unicode="&#x2000;" horiz-adv-x="817" />
<glyph unicode="&#x2001;" horiz-adv-x="1636" />
<glyph unicode="&#x2002;" horiz-adv-x="817" />
<glyph unicode="&#x2003;" horiz-adv-x="1636" />
<glyph unicode="&#x2004;" horiz-adv-x="544" />
<glyph unicode="&#x2005;" horiz-adv-x="407" />
<glyph unicode="&#x2006;" horiz-adv-x="272" />
<glyph unicode="&#x2007;" horiz-adv-x="272" />
<glyph unicode="&#x2008;" horiz-adv-x="202" />
<glyph unicode="&#x2009;" horiz-adv-x="325" />
<glyph unicode="&#x200a;" horiz-adv-x="90" />
<glyph unicode="&#x2010;" horiz-adv-x="763" d="M100 444v291h566v-291h-566z" />
<glyph unicode="&#x2011;" horiz-adv-x="763" d="M100 444v291h566v-291h-566z" />
<glyph unicode="&#x2012;" horiz-adv-x="763" d="M100 444v291h566v-291h-566z" />
<glyph unicode="&#x2013;" horiz-adv-x="919" d="M98 432v258h725v-258h-725z" />
<glyph unicode="&#x2014;" horiz-adv-x="1841" d="M98 432v258h1647v-258h-1647z" />
<glyph unicode="&#x2018;" horiz-adv-x="698" d="M190 856v285l203 352h193l-90 -352v-285h-306z" />
<glyph unicode="&#x2019;" horiz-adv-x="698" d="M117 856l90 352v285h305v-285l-205 -352h-190z" />
<glyph unicode="&#x201c;" horiz-adv-x="1210" d="M190 856v285l203 352h193l-90 -352v-285h-306zM645 856v283l205 354h190l-90 -354v-283h-305z" />
<glyph unicode="&#x201d;" horiz-adv-x="1210" d="M170 856l90 352v285h305v-285l-205 -352h-190zM625 856l92 350v287h305v-287l-207 -350h-190z" />
<glyph unicode="&#x2022;" horiz-adv-x="1177" d="M266 762q0 80 23 139q27 68 69 115q47 49 107 78q55 27 124.5 26.5t125.5 -26.5q53 -25 102 -78q47 -53 71.5 -116.5t24.5 -137.5t-24 -139q-25 -63 -72 -117q-43 -49 -104 -78q-55 -27 -125 -27t-125 27q-61 29 -105 78q-41 47 -67 117q-25 65 -25 139z" />
<glyph unicode="&#x2026;" horiz-adv-x="1841" d="M145 0v387h324v-387h-324zM760 0v387h323v-387h-323zM1372 0v387h326v-387h-326z" />
<glyph unicode="&#x202f;" horiz-adv-x="325" />
<glyph unicode="&#x205f;" horiz-adv-x="407" />
<glyph unicode="&#x20ac;" d="M-35 477l78 195h88v30q0 4 -1 18.5t-1 25t1 25.5t1 20v30h-166l78 195h117q70 244 231 375q160 129 395 129q106 0 195 -27q90 -27 178 -84v-309q-74 78 -155 117q-86 41 -173 40q-115 0 -194.5 -61t-120.5 -180h485l-77 -195h-445q-2 -10 -2 -35v-53v-28q0 -4 1 -15.5 t1 -17.5h385l-80 -195h-268q47 -123 123 -182q80 -61 192 -62q92 0 173 39q82 39 155 119v-309q-84 -53 -178 -82q-96 -29 -195 -29q-231 0 -397 131q-162 127 -229 375h-195z" />
<glyph unicode="&#x2122;" horiz-adv-x="1841" d="M266 1350v143h465v-143h-156v-435h-155v435h-154zM834 915v578h204l107 -227l106 227h205v-578h-153v437l-123 -256h-68l-125 256v-437h-153z" />
<glyph unicode="&#xe000;" horiz-adv-x="1120" d="M0 1120h1120v-1120h-1120v1120z" />
<glyph unicode="&#xfb01;" horiz-adv-x="1363" d="M39 864v256h158v78q0 184 92 270q94 88 284 88h246v-235h-178q-68 0 -92 -27q-27 -31 -27 -96v-78h688v-1120h-323v864h-365v-864h-325v864h-158zM887 1264v292h323v-292h-323z" />
<glyph unicode="&#xfb02;" horiz-adv-x="1363" d="M35 864v256h160v78q0 184 92 270q94 88 284 88h639v-1556h-323v1321h-248q-68 0 -94.5 -26.5t-26.5 -96.5v-78h252v-256h-252v-864h-323v864h-160z" />
<glyph unicode="&#xfb03;" horiz-adv-x="2054" d="M35 864v256h160v78q0 184 92 270q90 88 284 88h246v-235h-178q-68 0 -94 -27q-27 -31 -27 -96v-78h369v78q0 184 92 270q90 88 285 88h245v-235h-178q-70 0 -94 -27q-27 -27 -27 -96v-78h691v-1120h-324v864h-367v-864h-2h-321v864h-369v-864h-323v864h-160zM1577 1264 v292h324v-292h-324z" />
<glyph unicode="&#xfb04;" horiz-adv-x="2056" d="M35 864v256h160v78q0 184 92 270q90 88 284 88h246v-235h-178q-68 0 -94 -27q-27 -31 -27 -96v-78h369v78q0 184 92 270q90 88 285 88h639v-1556h-324v1321h-248q-68 0 -94 -27q-29 -29 -29 -96v-78h254v-256h-254v-864h-321v864h-369v-864h-323v864h-160z" />
</font>
</defs>
</svg>
