<?xml version="1.0" standalone="no"?>
<!DOCTYPE svg PUBLIC "-//W3C//DTD SVG 1.1//EN" "http://www.w3.org/Graphics/SVG/1.1/DTD/svg11.dtd" >
<svg xmlns="http://www.w3.org/2000/svg">
<metadata>
This is a custom SVG webfont generated by Font Squirrel.
Copyright   : Copyright c 2003 by Bitstream Inc All Rights ReservedCopyright c 2006 by Tavmjong Bah All Rights ReservedDejaVu changes are in public domain
Foundry     : DejaVu fonts team
Foundry URL : httpdejavusourceforgenet
</metadata>
<defs>
<font id="webfontHtmaWBj3" horiz-adv-x="1171" >
<font-face units-per-em="2048" ascent="1556" descent="-492" />
<missing-glyph horiz-adv-x="583" />
<glyph unicode=" "  horiz-adv-x="583" />
<glyph unicode="&#x09;" horiz-adv-x="583" />
<glyph unicode="&#xa0;" horiz-adv-x="583" />
<glyph unicode="!" horiz-adv-x="737" d="M145 0l48 254h182l-45 -254h-185zM248 481l45 357l115 655h182l-115 -655l-82 -357h-145z" />
<glyph unicode="&#x22;" horiz-adv-x="845" d="M176 938v555h154v-555h-154zM518 938v555h152v-555h-152z" />
<glyph unicode="#" horiz-adv-x="1542" d="M129 414l33 153h297l76 334h-304l35 154h303l93 415h145l-92 -415h262l94 415h143l-92 -415h303l-34 -154h-304l-73 -334h305l-33 -153h-307l-94 -414h-144l93 414h-265l-92 -414h-145l94 414h-297zM604 567h264l74 334h-262z" />
<glyph unicode="$" d="M61 92l31 184q86 -63 172 -96q94 -37 187 -39l77 457q-172 37 -247.5 110.5t-75.5 200.5q0 168 123 281q125 115 325 133l43 233h90l-38 -233q82 -4 157 -18q78 -16 146 -43l-31 -181q-70 41 -154 70q-78 27 -145 29l-76 -428q164 -27 252 -115t88 -221q0 -175 -129 -289 q-131 -115 -342 -127l-53 -301h-90l53 301q-109 4 -197 27q-98 26 -166 65zM377 938q0 -70 43 -109q45 -41 139 -59l72 410q-121 -16 -187 -78q-67 -66 -67 -164zM541 145q125 6 196 70q74 63 74 168q0 84 -45 129q-47 47 -150 66z" />
<glyph unicode="%" horiz-adv-x="1748" d="M168 1036q0 215 104 350q102 133 273 134q121 0 192.5 -90.5t71.5 -241.5q0 -217 -104 -348q-104 -133 -273 -133q-125 0 -194.5 87.5t-69.5 241.5zM260 -29l1112 1549h144l-1113 -1549h-143zM311 1026q0 -92 37 -141q39 -51 105 -51q94 0 153.5 96t59.5 252 q0 104 -35 157.5t-105 53.5q-100 0 -157.5 -96.5t-57.5 -270.5zM944 301q0 219 105 350q104 133 270 133q125 0 194.5 -88t69.5 -241q0 -213 -104.5 -348.5t-270.5 -135.5q-123 0 -192 88q-72 90 -72 242zM1087 291q0 -94 37 -143.5t105 -49.5q96 0 153.5 94.5t57.5 253.5 q0 106 -35 159.5t-105 53.5q-96 0 -155 -98q-58 -96 -58 -270z" />
<glyph unicode="&#x26;" horiz-adv-x="1435" d="M86 369q0 152 84 290q80 133 248 254q-29 49 -41 93q-14 53 -15 102q0 70 21 129q23 66 59 111q57 78 156 127q90 45 203 45q68 0 139 -19q82 -20 145 -53l-30 -182q-72 49 -135 71q-68 25 -132 25q-111 0 -180 -63.5t-69 -165.5q0 -47 16 -86q16 -41 80 -132l366 -520 q63 76 115 180q49 100 74 226h166q-37 -150 -107 -291q-63 -129 -157 -240l188 -270h-227l-97 139q-94 -82 -204.5 -125t-229.5 -43q-197 0 -317 109q-119 107 -119 289zM266 414q0 -127 76 -203q78 -78 205 -78q88 0 168 33q84 35 155 94l-383 543q-115 -94 -165 -187 q-56 -98 -56 -202z" />
<glyph unicode="'" horiz-adv-x="505" d="M176 938v555h154v-555h-154z" />
<glyph unicode="(" horiz-adv-x="718" d="M141 383q0 291 125 588q123 289 373 583h147q-240 -334 -356 -628q-117 -299 -117 -574q0 -152 35 -313q33 -150 103 -309h-146q-84 174 -123 333q-41 168 -41 320z" />
<glyph unicode=")" horiz-adv-x="718" d="M-115 -270q240 334 357 628q117 297 116 574q0 162 -32 313q-33 150 -103 309h144q86 -178 124.5 -333.5t38.5 -317.5q0 -299 -124 -592q-127 -295 -373 -581h-148z" />
<glyph unicode="*" horiz-adv-x="919" d="M55 858l324 195l-324 194l51 99l304 -203v377h102v-377l301 203l53 -99l-321 -194l321 -195l-53 -98l-301 203v-377h-102v377l-304 -203z" />
<glyph unicode="+" horiz-adv-x="1542" d="M195 557v170h501v557h152v-557h502v-170h-502v-557h-152v557h-501z" />
<glyph unicode="," horiz-adv-x="583" d="M4 -238l131 320l31 172h190l-30 -172l-203 -320h-119z" />
<glyph unicode="-" horiz-adv-x="663" d="M84 479l29 164h485l-29 -164h-485z" />
<glyph unicode="." horiz-adv-x="583" d="M106 0l46 254h190l-45 -254h-191z" />
<glyph unicode="/" horiz-adv-x="620" d="M-135 -190l762 1683h159l-761 -1683h-160z" />
<glyph unicode="0" d="M92 494q0 195 45 380q45 188 129 340q82 150 194.5 228t244.5 78q180 0 278 -136q96 -133 96 -387q0 -195 -45 -381q-47 -195 -127 -340q-83 -151 -196 -227q-115 -78 -250 -78q-178 0 -273 135q-96 138 -96 388zM270 465q0 -162 54 -250q51 -84 155 -84q70 0 133.5 41 t110.5 119q82 131 131 327q47 188 47 408q0 162 -53 250q-51 84 -156 84q-66 0 -129 -41t-110 -119q-84 -133 -133.5 -329.5t-49.5 -405.5z" />
<glyph unicode="1" d="M90 0l31 170h297l198 1149l-333 -72l30 174l334 72h182l-231 -1323h297l-31 -170h-774z" />
<glyph unicode="2" d="M6 0l31 170l606 578q119 115 172 206q51 88 51 181q0 96 -61.5 157.5t-159.5 61.5q-90 0 -190 -33q-92 -31 -224 -100l35 200q109 49 213 74q102 25 189 25q175 0 282 -105q109 -104 109 -272q0 -115 -51 -217q-53 -106 -158 -205l-582 -553h643l-32 -168h-873z" />
<glyph unicode="3" d="M4 45l33 191q90 -55 170 -78q86 -25 176 -25q176 0 289 103q109 100 108 262q0 106 -69 161q-72 55 -201 56h-156l29 164h164q152 0 235 75q86 78 86 207q0 94 -63.5 145.5t-175.5 51.5q-94 0 -178 -21q-86 -20 -187 -61l29 180q104 33 190 47q98 16 185 17 q180 0 282 -88q104 -88 105 -236q0 -143 -84 -250q-83 -104 -228 -141q117 -39 168 -113q53 -78 54 -200q0 -119 -53.5 -225.5t-147.5 -180.5q-72 -57 -178 -86q-104 -29 -236 -29q-84 0 -170 19q-88 18 -176 55z" />
<glyph unicode="4" d="M33 352l35 195l725 946h229l-172 -973h190l-28 -168h-193l-59 -352h-180l59 352h-606zM211 520h459l139 797z" />
<glyph unicode="5" d="M37 35l33 188q83 -46 166 -67q86 -23 167 -23q178 0 291 117q115 119 115 293q0 131 -76 202.5t-209 71.5q-71 0 -147 -18q-84 -20 -160 -56l131 750h723l-29 -168h-555l-65 -369q49 18 84 23q43 6 88 6q184 0 293 -111q109 -113 108 -301q0 -133 -55 -256 q-53 -119 -158 -213q-70 -63 -176 -98q-109 -35 -225 -35q-74 0 -166 17q-80 14 -178 47z" />
<glyph unicode="6" d="M117 461q0 213 49 409q51 203 135 340q92 152 225 232q129 78 291 78q76 0 139 -15q70 -16 136 -47l-31 -184q-49 35 -121 57q-63 20 -143 21q-186 0 -299 -129q-115 -129 -170 -408q63 84 153 129q86 43 189 43q162 0 262 -106q96 -102 96 -283q0 -152 -47 -272 q-49 -127 -139 -220q-68 -68 -148 -100q-86 -35 -178 -35q-186 0 -292.5 131.5t-106.5 358.5zM299 412q0 -135 57 -207q57 -74 162 -74q137 0 234 123q94 121 94 299q0 129 -58 201q-58 74 -159 73q-139 0 -236 -120q-94 -119 -94 -295z" />
<glyph unicode="7" d="M170 0l727 1323h-690l29 170h919l-16 -86l-768 -1407h-201z" />
<glyph unicode="8" d="M61 358q0 158 99 285q96 123 256 158q-98 37 -146 112q-49 78 -49 183q0 180 135 303q133 121 344 121q172 0 283 -98.5t111 -250.5q0 -133 -82 -235q-82 -104 -224 -150q98 -41 156 -131q55 -86 55 -209q0 -207 -145 -342q-141 -133 -371 -133q-194 0 -307 105 q-115 104 -115 282zM240 379q0 -113 69 -180q72 -68 189 -68q143 0 231 90q90 94 90 232q0 115 -69 184q-72 72 -189 72q-139 0 -231 -93q-90 -90 -90 -237zM399 1090q0 -96 64 -160q61 -61 166 -62q123 0 202 80q82 82 82 201q0 96 -63.5 153.5t-167.5 57.5 q-121 0 -203 -78q-80 -77 -80 -192z" />
<glyph unicode="9" d="M82 33l33 184q51 -35 118 -57q63 -20 144 -21q186 0 299 131q115 133 170 408q-68 -86 -154 -129q-90 -45 -188 -45q-166 0 -262.5 106.5t-96.5 282.5q0 143 48 272q43 117 141 219q70 70 145 101q86 35 176 35q188 0 295 -131q109 -133 109 -359q0 -203 -51 -407 q-51 -201 -138 -342q-92 -152 -225 -232q-129 -78 -291 -78q-76 0 -139 15q-65 14 -133 47zM326 940q0 -125 59 -200.5t160 -75.5q141 0 235 118.5t94 296.5q0 131 -59 207q-57 74 -162 74q-139 0 -233 -121t-94 -299z" />
<glyph unicode=":" horiz-adv-x="620" d="M94 0l45 254h191l-45 -254h-191zM238 805l45 254h188l-43 -254h-190z" />
<glyph unicode=";" horiz-adv-x="620" d="M2 -238l127 320l33 172h190l-33 -172l-200 -320h-117zM258 805l43 254h191l-43 -254h-191z" />
<glyph unicode="&#x3c;" horiz-adv-x="1542" d="M195 559v166l1155 465v-182l-930 -367l930 -365v-182z" />
<glyph unicode="=" horiz-adv-x="1542" d="M195 352v170h1155v-170h-1155zM195 762v168h1155v-168h-1155z" />
<glyph unicode="&#x3e;" horiz-adv-x="1542" d="M195 94v182l927 365l-927 367v182l1155 -465v-166z" />
<glyph unicode="?" horiz-adv-x="976" d="M227 1219l33 188q92 58 184 86q88 27 187 27q144 0 227 -74q84 -74 84 -205q0 -106 -47 -192q-49 -90 -158 -189l-94 -84q-74 -61 -100 -112q-20 -39 -41 -140l-23 -123h-172l29 154q14 90 51 160q35 66 135 157l94 89q74 68 107 122q31 52 31 111q0 76 -49.5 119 t-135.5 43q-76 0 -159 -35q-89 -36 -183 -102zM231 0l45 254h183l-43 -254h-185z" />
<glyph unicode="@" horiz-adv-x="1841" d="M106 401q0 225 95 435q94 211 264 364q123 111 287 176q160 63 331 64q289 0 478 -189q190 -190 190 -473q0 -297 -182 -491q-184 -197 -467 -203l26 154q-61 -74 -135 -111q-78 -39 -151 -39q-133 0 -219 98.5t-86 251.5q0 221 133 385t313 164q82 0 147 -41 q68 -41 101 -110l24 131h129l-129 -738q160 27 263 181q102 152 102 360q0 233 -147.5 380.5t-385.5 147.5q-154 0 -309 -63q-150 -61 -264 -176q-127 -131 -203 -309q-74 -176 -73 -361q0 -258 157 -432q156 -170 400 -170q115 0 229 43q106 41 236 137l73 -114 q-125 -102 -262 -154q-143 -53 -291 -53q-291 0 -481 215q-193 216 -193 540zM680 467q0 -111 51 -174.5t143 -63.5q127 0 213.5 113t86.5 281q0 104 -51.5 163.5t-137.5 59.5q-129 0 -217 -111q-88 -108 -88 -268z" />
<glyph unicode="A" horiz-adv-x="1259" d="M-98 0l778 1493h205l250 -1493h-191l-55 383h-604l-191 -383h-192zM367 551h493l-117 743z" />
<glyph unicode="B" horiz-adv-x="1263" d="M49 0l262 1493h465q188 0 283 -78q92 -76 92 -235q0 -143 -80 -248q-82 -106 -211 -127q115 -29 168 -107q55 -80 55 -211q0 -225 -149.5 -356t-409.5 -131h-475zM260 166h293q164 0 254 84t90 237q0 117 -59 172q-55 53 -191 54h-291zM383 877h270q145 0 227.5 69.5 t82.5 194.5q0 98 -56 141q-57 45 -176 45h-268z" />
<glyph unicode="C" horiz-adv-x="1286" d="M78 561q0 178 55 350t160 314q109 154 250 223q143 72 327 72q121 0 220 -35q100 -35 190 -107l-37 -213q-84 96 -182 143.5t-209 47.5q-156 0 -270 -82q-121 -86 -201 -250q-55 -109 -84 -229q-29 -125 -29 -242q0 -203 97 -311q94 -106 274 -107q123 0 242 45 q115 43 223 133l-41 -239q-104 -51 -217 -76q-121 -27 -219 -27q-260 0 -404 156q-145 158 -145 434z" />
<glyph unicode="D" horiz-adv-x="1417" d="M49 0l262 1493h391q309 0 469 -147.5t160 -434.5q0 -195 -61 -368q-66 -184 -166 -297q-109 -123 -273 -185q-166 -61 -389 -61h-393zM262 166h238q307 0 473 194q166 193 166 551q0 213 -109 316q-106 100 -338 100h-227z" />
<glyph unicode="E" horiz-adv-x="1163" d="M49 0l262 1493h850l-31 -170h-667l-78 -442h641l-29 -170h-641l-94 -541h684l-31 -170h-866z" />
<glyph unicode="F" horiz-adv-x="1058" d="M49 0l262 1493h770l-28 -170h-590l-78 -440h533l-29 -170h-533l-127 -713h-180z" />
<glyph unicode="G" horiz-adv-x="1427" d="M84 561q0 231 86 440q86 207 240 347q94 84 211 129q113 43 253 43q131 0 242 -35q117 -37 219 -107l-35 -215q-76 92 -190 144q-106 49 -231 49q-150 0 -254 -60q-109 -61 -195 -188q-72 -102 -115 -254q-41 -141 -41 -299q0 -209 97 -315q96 -104 286 -105q90 0 185 23 q88 20 164 65l69 391h-297l29 166h475l-117 -657q-117 -72 -260 -113q-137 -39 -284 -39q-254 0 -395.5 155.5t-141.5 434.5z" />
<glyph unicode="H" horiz-adv-x="1384" d="M49 0l262 1493h183l-107 -612h660l106 612h182l-260 -1493h-182l125 711h-662l-125 -711h-182z" />
<glyph unicode="I" horiz-adv-x="542" d="M49 0l262 1493h183l-263 -1493h-182z" />
<glyph unicode="J" horiz-adv-x="542" d="M-301 -410l29 170h57q121 0 184 76q61 74 97 268l241 1389h182l-241 -1389q-49 -272 -162 -393t-315 -121h-72z" />
<glyph unicode="K" horiz-adv-x="1206" d="M49 0l262 1493h183l-111 -629l707 629h241l-799 -713l584 -780h-219l-539 727l-127 -727h-182z" />
<glyph unicode="L" horiz-adv-x="1024" d="M49 0l260 1493h183l-230 -1325h653l-28 -168h-838z" />
<glyph unicode="M" horiz-adv-x="1589" d="M49 0l262 1493h273l157 -1006l521 1006h278l-260 -1493h-178l229 1309l-526 -1022h-178l-172 1026l-228 -1313h-178z" />
<glyph unicode="N" horiz-adv-x="1376" d="M49 0l262 1493h244l373 -1280l223 1280h178l-262 -1493h-246l-368 1288l-226 -1288h-178z" />
<glyph unicode="O" horiz-adv-x="1449" d="M74 580q0 163 55 331.5t154 300.5q115 156 254 232t309 76q248 0 389 -162t141 -440q0 -178 -53 -338q-55 -168 -156 -301q-111 -152 -254 -232q-137 -76 -309 -76q-248 0 -389 162t-141 447zM266 569q0 -207 90 -321q88 -113 254 -113q150 0 264 82q113 80 197 242 q57 111 84 227q29 125 29 236q0 207 -90 321q-88 113 -252 113q-151 0 -264 -80q-113 -78 -199 -246q-55 -106 -84 -223q-29 -121 -29 -238z" />
<glyph unicode="P" horiz-adv-x="1110" d="M49 0l262 1493h420q186 0 281 -94q96 -96 96 -279q0 -244 -141 -383q-139 -137 -402 -137h-227l-107 -600h-182zM367 766h229q156 0 237.5 88t81.5 252q0 106 -55 163.5t-158 57.5h-237z" />
<glyph unicode="Q" horiz-adv-x="1449" d="M76 575q0 172 53 334q55 168 154 303q113 156 252 232t311 76q248 0 389 -162t141 -440q0 -303 -147.5 -551t-386.5 -353l182 -278h-205l-153 237q-2 0 -10.5 -1t-10.5 -1h-33q-254 0 -395 159.5t-141 444.5zM266 569q0 -207 90 -321q88 -113 254 -113q150 0 264 82 q113 80 197 242q57 111 84 227q29 125 29 236q0 207 -90 321q-88 113 -252 113q-151 0 -264 -80q-113 -78 -199 -246q-55 -106 -84 -223q-29 -121 -29 -238z" />
<glyph unicode="R" horiz-adv-x="1280" d="M49 0l262 1493h410q184 0 284.5 -94t100.5 -269q0 -160 -84 -270q-88 -117 -223 -143q59 -16 96 -74q33 -53 88 -235l115 -408h-193l-104 383q-41 147 -94 199q-51 49 -162 49h-203l-111 -631h-182zM373 797h233q139 0 223 84t84 221q0 111 -57 168t-164 57h-227z" />
<glyph unicode="S" horiz-adv-x="1169" d="M10 66l37 208q113 -76 201 -104q104 -35 201 -35q166 0 272 84q102 82 102 219q0 90 -41 137.5t-176 83.5l-108 31q-186 55 -254 125q-68 71 -68 197q0 225 153.5 366.5t401.5 141.5q95 0 191 -19q84 -16 190 -57l-37 -197q-86 53 -178 82q-86 27 -174 27 q-168 0 -260 -78q-96 -80 -96 -211q0 -71 36 -111q37 -39 183 -82l108 -30q186 -53 256 -135q74 -86 74 -228q0 -227 -159.5 -368.5t-422.5 -141.5q-117 0 -215 23q-121 27 -217 72z" />
<glyph unicode="T" horiz-adv-x="1124" d="M80 1323l29 170h1136l-28 -170h-480l-229 -1323h-184l231 1323h-475z" />
<glyph unicode="U" horiz-adv-x="1347" d="M106 389q0 20 5 78q2 29 14 94l160 932h184l-160 -907q-10 -63 -12 -101q-4 -53 -4 -69q0 -138 67 -209q68 -72 203 -72q174 0 272.5 106.5t137.5 344.5l157 907h185l-164 -932q-53 -301 -201 -446q-145 -143 -405 -144q-205 0 -320 113q-119 115 -119 305z" />
<glyph unicode="V" horiz-adv-x="1259" d="M143 1493h179l196 -1284l651 1284h199l-776 -1493h-211z" />
<glyph unicode="W" horiz-adv-x="1820" d="M176 1493h178l64 -1270l508 1270h202l66 -1270l502 1270h184l-598 -1493h-227l-64 1245l-502 -1245h-229z" />
<glyph unicode="X" horiz-adv-x="1261" d="M-80 0l629 803l-295 690h182l232 -539l415 539h213l-555 -713l334 -780h-180l-272 629l-492 -629h-211z" />
<glyph unicode="Y" horiz-adv-x="1124" d="M117 1493h194l250 -614l479 614h205l-608 -782l-125 -711h-182l125 711z" />
<glyph unicode="Z" horiz-adv-x="1261" d="M-41 0l27 154l1040 1169h-813l29 170h1054l-26 -154l-1041 -1169h856l-28 -170h-1098z" />
<glyph unicode="[" horiz-adv-x="718" d="M74 -270l317 1826h383l-26 -143h-216l-268 -1540h215l-24 -143h-381z" />
<glyph unicode="\" horiz-adv-x="620" d="M158 1493h151l174 -1683h-151z" />
<glyph unicode="]" horiz-adv-x="718" d="M-70 -270l25 143h215l268 1540h-213l23 143h383l-320 -1826h-381z" />
<glyph unicode="^" horiz-adv-x="1542" d="M195 936l489 557h176l490 -557h-183l-395 395l-395 -395h-182z" />
<glyph unicode="_" horiz-adv-x="919" d="M-18 -340h958v-143h-958v143z" />
<glyph unicode="`" horiz-adv-x="919" d="M350 1638h176l191 -374h-139z" />
<glyph unicode="a" horiz-adv-x="1128" d="M76 283q0 197 141 311q139 113 387 113h232l8 49q4 12 4 18v29q0 90 -65.5 139t-184.5 49q-76 0 -166 -22q-76 -18 -174 -70l29 170q100 41 184 59q89 18 172 19q180 0 272.5 -86t92.5 -250q0 -20 -4 -78q-2 -29 -15 -94l-110 -639h-166l28 170q-68 -96 -166 -150 q-92 -49 -206 -49q-127 0 -211 88q-82 85 -82 224zM248 315q0 -90 49 -139t137 -49q133 0 235.5 108.5t135.5 286.5l6 41h-166q-203 0 -301 -61q-96 -60 -96 -187z" />
<glyph unicode="b" horiz-adv-x="1169" d="M68 0l272 1556h166l-109 -606q59 90 153.5 143.5t192.5 53.5q156 0 248 -117q90 -115 90 -313q0 -160 -53 -313.5t-151 -270.5q-68 -80 -150 -121t-178 -41q-98 0 -170 49q-70 49 -117 150l-31 -170h-163zM315 420q0 -135 60 -217q57 -78 162 -78q76 0 145 41 q68 41 117 119q51 80 82 190q33 115 32 209q0 147 -59 227q-61 82 -166 82q-80 0 -143 -41q-70 -45 -117 -121q-55 -86 -84 -192q-29 -102 -29 -219z" />
<glyph unicode="c" horiz-adv-x="1011" d="M86 401q0 172 55.5 319.5t165.5 264.5q74 80 178.5 121t221.5 41q82 0 141 -17q66 -18 139 -53l-33 -182q-55 47 -125 72q-68 25 -141 24q-78 0 -149 -30q-74 -33 -121 -89q-74 -82 -119 -204q-43 -117 -43 -242q0 -152 67.5 -225.5t206.5 -73.5q66 0 146 23 q74 20 162 69l-31 -182q-70 -33 -150 -49q-82 -16 -155 -17q-203 0 -309 111q-107 108 -107 319z" />
<glyph unicode="d" horiz-adv-x="1169" d="M86 399q0 168 51 316q51 145 156 270q59 74 149 121q80 41 174 41q100 0 172 -51q76 -53 115 -150l109 610h166l-273 -1556h-166l31 168q-63 -98 -158 -148q-92 -49 -200 -49q-154 0 -240 115q-86 113 -86 313zM256 432q0 -143 59.5 -225t163.5 -82q82 0 144 41 q65 43 116 123q53 86 84 194q31 111 31 217q0 139 -59.5 217t-161.5 78q-78 0 -148 -41q-68 -39 -114 -118q-55 -86 -84 -193q-31 -111 -31 -211z" />
<glyph unicode="e" horiz-adv-x="1132" d="M86 399q0 175 55 326q55 150 164 268q74 76 168 115q96 39 207 39q168 0 270.5 -114.5t102.5 -305.5q0 -46 -6 -98q-8 -74 -17 -113h-770q-2 -14 -4 -34.5t-2 -24.5q-2 -14 -2 -39q0 -139 75.5 -215t217.5 -76q113 0 205 27q98 29 180 79l-33 -182q-80 -35 -184 -59 q-90 -20 -193 -21q-209 0 -323 111q-111 108 -111 317zM293 659h594q4 20 4 33q0 6 1 17.5t1 17.5q0 121 -65.5 192.5t-176.5 71.5q-123 0 -217 -86q-90 -82 -141 -246z" />
<glyph unicode="f" horiz-adv-x="647" d="M125 0l172 977h-158l23 143h157l15 78q35 199 121 278.5t270 79.5h156l-27 -153h-158q-92 0 -131 -39q-37 -37 -59 -145l-19 -99h273l-25 -143h-272l-170 -977h-168z" />
<glyph unicode="g" horiz-adv-x="1169" d="M59 -367l31 179q63 -45 129 -66q63 -20 146 -20q158 0 260 96q98 92 133 274l14 84q-66 -88 -162 -135q-90 -45 -196 -45q-156 0 -242 112.5t-86 309.5q0 158 51 303q53 150 150 264q66 78 149 117q88 41 178 41q98 0 177 -53q76 -51 112 -148l29 174h168l-172 -981 q-49 -285 -191 -426q-139 -139 -377 -139q-92 0 -161 14q-81 16 -140 45zM256 440q0 -137 59 -213q58 -74 166 -73q160 0 264.5 159.5t104.5 395.5q0 139 -57 211q-59 74 -164 73q-63 0 -125 -28q-57 -27 -103 -82q-66 -84 -106 -203q-39 -115 -39 -240z" />
<glyph unicode="h" horiz-adv-x="1167" d="M66 0l272 1556h166l-109 -612q61 92 162 148q98 55 207 55q131 0 204.5 -80t73.5 -225q0 -23 -4 -76q-4 -41 -12 -90l-117 -676h-168l119 670q4 18 7 45.5t5 36.5q6 37 7 57q0 84 -50 131q-51 47 -133 47q-133 0 -231 -100q-96 -100 -125 -266l-111 -621h-163z" />
<glyph unicode="i" horiz-adv-x="512" d="M66 0l196 1120h166l-199 -1120h-163zM297 1323l41 233h166l-41 -233h-166z" />
<glyph unicode="j" horiz-adv-x="512" d="M-209 -426l29 156h41q100 0 139 45q41 47 68 205l198 1140h166l-199 -1140v-5q-35 -195 -75 -262q-37 -63 -119 -102q-77 -37 -184 -37h-64zM303 1323l41 233h166l-41 -233h-166z" />
<glyph unicode="k" horiz-adv-x="1064" d="M66 0l272 1556h166l-160 -907l569 471h215l-634 -536l462 -584h-200l-430 547l-97 -547h-163z" />
<glyph unicode="l" horiz-adv-x="512" d="M66 0l272 1556h166l-275 -1556h-163z" />
<glyph unicode="m" horiz-adv-x="1794" d="M66 0l196 1120h166l-33 -174q63 94 160 150q88 51 193 51q111 0 180 -64q71 -65 86 -178q80 121 174 180q98 61 211 62q131 0 200.5 -82t69.5 -236q0 -20 -4 -73q-2 -27 -10 -80l-119 -676h-164l117 670q10 68 10 73q2 20 2 54q0 94 -45 141q-47 49 -125 49 q-121 0 -215 -100.5t-123 -261.5l-110 -625h-166l119 670q8 49 10 69q4 41 4 56q0 94 -45 141q-47 51 -125 51q-123 0 -217 -100q-92 -98 -121 -262l-113 -625h-163z" />
<glyph unicode="n" horiz-adv-x="1167" d="M66 0l194 1120h166l-35 -176q70 98 168 150q100 53 205 53q131 0 204.5 -80t73.5 -225q0 -23 -4 -76q-4 -41 -12 -90l-117 -676h-168l119 670q4 18 7 45.5t5 36.5q6 37 7 57q0 84 -50 131q-51 47 -133 47q-135 0 -229 -98q-94 -96 -125 -268l-113 -621h-163z" />
<glyph unicode="o" horiz-adv-x="1126" d="M86 424q0 129 35 248q37 127 92 213q88 135 199 198q109 63 247 64q174 0 278.5 -119t104.5 -311q0 -129 -34 -264q-35 -133 -93 -220q-90 -137 -196 -198q-109 -63 -250 -64q-178 0 -280.5 121t-102.5 332zM256 430q0 -152 57.5 -227.5t173.5 -75.5q164 0 274.5 162 t110.5 409q0 143 -59 220q-58 74 -172 73q-92 0 -166 -49q-72 -47 -131 -147q-45 -78 -65 -168q-23 -101 -23 -197z" />
<glyph unicode="p" horiz-adv-x="1169" d="M-4 -426l270 1546h164l-29 -170q68 98 158 148q88 49 201 49q154 0 239.5 -112.5t85.5 -315.5q0 -162 -53 -316q-52 -151 -153 -270q-59 -74 -150 -121q-80 -41 -176 -41q-106 0 -180 49q-72 47 -109 148l-104 -594h-164zM319 416q0 -139 57.5 -215t164.5 -76 q74 0 143 41q66 39 117 119t82 192q31 111 30 213q0 150 -57 225q-59 78 -166 78q-72 0 -139 -43q-72 -45 -121 -121q-47 -72 -80 -190q-31 -110 -31 -223z" />
<glyph unicode="q" horiz-adv-x="1169" d="M86 401q0 160 53 314q52 151 154 270q68 82 147 121q82 41 176 41q113 0 185 -49q74 -51 104 -148l29 168h168l-271 -1540h-165l102 590q-68 -98 -156 -147.5t-200 -49.5q-154 0 -240 114.5t-86 315.5zM256 428q0 -150 55 -225q55 -78 162 -78q158 0 268.5 166t110.5 405 q0 145 -57.5 221t-163.5 76q-76 0 -146 -41q-66 -39 -117 -118.5t-81 -192.5q-31 -111 -31 -213z" />
<glyph unicode="r" horiz-adv-x="755" d="M66 0l196 1120h166l-33 -174q63 96 158 150q90 51 195 51q20 0 53 -4q39 -4 53 -10l-33 -183q-16 10 -57 23q-27 8 -70 8q-133 0 -231 -111q-100 -113 -131 -299l-103 -571h-163z" />
<glyph unicode="s" horiz-adv-x="958" d="M20 41l33 190q96 -55 178 -79q86 -27 170 -27q121 0 197 57q78 59 78 148q0 96 -201 155l-16 4l-58 17q-126 37 -184 98q-59 63 -59 154q0 180 121 284q119 104 329 105q88 0 160 -14q82 -16 154 -46l-31 -174q-57 35 -139 60q-70 20 -152 20q-129 0 -205 -49t-76 -135 q0 -98 177 -152l18 -6l53 -18q168 -53 221 -107q55 -55 56 -153q0 -178 -127 -289q-129 -113 -334 -113q-88 0 -168 17q-99 20 -195 53z" />
<glyph unicode="t" horiz-adv-x="720" d="M119 977l24 143h140l55 318h166l-55 -318h329l-24 -143h-330l-107 -608l-8 -58q-4 -29 -4 -35q0 -66 35 -94t113 -28h165l-26 -154h-160q-147 0 -219 63q-74 63 -74 195q0 14 4 51t9 60l106 608h-139z" />
<glyph unicode="u" horiz-adv-x="1167" d="M104 276q0 12 5 74q2 27 14 94l119 676h166l-117 -669q-12 -70 -15 -84q-4 -45 -4 -58q0 -84 47.5 -131t133.5 -47q131 0 229 100q96 98 127 269l111 620h165l-194 -1120h-166l33 176q-74 -102 -166 -151q-100 -53 -207 -54q-133 0 -207 80t-74 225z" />
<glyph unicode="v" horiz-adv-x="1089" d="M131 1120h176l148 -952l483 952h174l-571 -1120h-224z" />
<glyph unicode="w" horiz-adv-x="1505" d="M158 1120h161l43 -901l377 901h193l53 -901l358 901h166l-460 -1120h-195l-47 928l-387 -928h-195z" />
<glyph unicode="x" horiz-adv-x="1089" d="M-47 0l496 590l-265 530h191l192 -405l338 405h201l-463 -549l285 -571h-191l-213 444l-370 -444h-201z" />
<glyph unicode="y" horiz-adv-x="1089" d="M-45 -426l27 154h96q68 0 117 43q47 41 108 163l53 107l-225 1079h176l168 -858l463 858h174l-655 -1224q-115 -217 -187 -269q-76 -53 -184 -53h-131z" />
<glyph unicode="z" horiz-adv-x="966" d="M-4 0l29 168l757 805h-594l25 147h788l-30 -168l-758 -805h627l-27 -147h-817z" />
<glyph unicode="{" d="M223 537l25 147h55q131 0 189 55q59 55 86 205l40 244q25 125 56 194q29 68 82 111q39 33 104 49q57 14 180 14h74l-24 -143h-70q-125 0 -166 -39t-70 -190l-45 -252q-27 -156 -84 -232q-55 -74 -153 -94q68 -18 102 -69q35 -49 35 -127q0 -35 -2 -58q-2 -18 -10 -69 l-43 -244q-4 -41 -6.5 -59.5t-2.5 -49.5q0 -66 39 -92q41 -29 125 -28h70l-27 -144h-63q-168 0 -242 55.5t-74 176.5q0 20 5 65q2 23 10 72l39 235q0 6 2 13q10 55 10 94q0 84 -45 123q-43 37 -145 37h-56z" />
<glyph unicode="|" horiz-adv-x="620" d="M233 -483v2048h154v-2048h-154z" />
<glyph unicode="}" d="M12 -334l27 144h70q121 0 165 40q39 37 68 189l47 252q29 162 82 233q53 70 156 92q-68 18 -103 70q-35 49 -35 127q0 37 2.5 57.5t10.5 69.5l43 244q2 12 4 32.5t2 24.5q2 16 2 51q0 66 -39 92q-41 29 -125 29h-70l23 143h68q168 0 241.5 -55t73.5 -176q0 -20 -4 -65 q-2 -12 -10 -72l-41 -236v-12q-10 -55 -11 -94q0 -84 46 -123q43 -37 145 -37h55l-26 -147h-56q-127 0 -186 -56q-57 -55 -82 -204l-47 -244q-23 -117 -57 -197q-31 -72 -78 -108q-43 -34 -105 -49q-57 -14 -182 -15h-74z" />
<glyph unicode="~" horiz-adv-x="1542" d="M195 467v178q92 78 176 113q82 35 168 35q104 0 231 -60l12 -6q2 0 9.5 -3t11.5 -5q139 -61 223 -62q77 0 154 37q72 35 170 123v-178q-92 -78 -176 -113q-82 -35 -168 -34q-94 0 -230 59q-10 4 -14 6q-2 0 -9.5 3t-11.5 5q-141 61 -223 61.5t-158 -38.5 q-81 -43 -165 -121z" />
<glyph unicode="&#xa2;" d="M137 401q0 305 160 514t412 230l51 285h90l-49 -285q59 -6 123 -23q51 -14 114 -45l-32 -182q-45 39 -99 59q-59 23 -135 35l-151 -862q66 6 127 27q63 20 141 65l-33 -182q-68 -33 -123 -45t-135 -21l-53 -284h-90l53 284q-178 12 -274.5 124.5t-96.5 305.5zM305 426 q0 -133 55 -207q53 -72 170 -94l152 860q-158 -20 -268 -184q-109 -162 -109 -375z" />
<glyph unicode="&#xa3;" d="M43 0l31 170h211l82 465h-179l25 143h178l41 238q45 260 166 383q117 121 326 121q66 0 125 -15q66 -16 125 -45l-31 -182q-53 39 -115 61q-55 20 -115 21q-133 0 -200 -80q-66 -78 -103 -287l-37 -215h353l-27 -143h-352l-80 -465h483l-30 -170h-877z" />
<glyph unicode="&#xa5;" d="M84 455l20 123h375l10 51l-49 155h-301l23 123h239l-184 586h172l215 -700l463 700h172l-385 -586h236l-23 -123h-295l-102 -155l-8 -51h368l-20 -123h-371l-78 -455h-182l78 455h-373z" />
<glyph unicode="&#xa9;" horiz-adv-x="1841" d="M256 741q0 158 47 285q49 132 148 240q102 113 215 164q121 55 256 55t254 -55q117 -53 217 -164q98 -108 147 -240q47 -127 47 -285q0 -160 -47 -282q-51 -135 -147 -240q-100 -111 -217 -164q-119 -55 -254.5 -55t-255.5 55q-113 51 -215 164q-96 104 -148 240 q-47 122 -47 282zM344 741q0 -131 43 -243q41 -111 129 -207q82 -94 186.5 -141.5t219.5 -47.5q117 0 221 47.5t186 141.5q80 90 125 207q43 113 43 243q0 132 -43 246q-45 117 -125 207q-82 94 -186.5 141t-220.5 47q-115 0 -219.5 -47t-186.5 -141q-86 -95 -129 -209 q-43 -113 -43 -244zM524 741q0 211 113 330q115 121 307 121q70 0 127 -14q74 -18 121 -41v-129q-61 35 -119 49q-61 16 -119 16q-131 0 -209 -88q-76 -84 -75 -244q0 -158 77.5 -245.5t217.5 -87.5q53 0 112 16q51 14 115 49v-127q-61 -28 -123 -43q-57 -14 -125 -14 q-194 0 -307 123q-113 120 -113 329z" />
<glyph unicode="&#xad;" horiz-adv-x="663" d="M84 479l29 164h485l-29 -164h-485z" />
<glyph unicode="&#xae;" horiz-adv-x="1841" d="M256 741q0 158 47 285q49 132 148 240q102 113 215 164q121 55 256 55t254 -55q117 -53 217 -164q98 -108 147 -240q47 -127 47 -285q0 -160 -47 -282q-51 -135 -147 -240q-100 -111 -217 -164q-119 -55 -254.5 -55t-255.5 55q-113 51 -215 164q-96 104 -148 240 q-47 122 -47 282zM344 741q0 -131 43 -243q41 -111 129 -207q82 -94 186.5 -141.5t219.5 -47.5q117 0 221 47.5t186 141.5q80 90 125 207q43 113 43 243q0 132 -43 246q-45 117 -125 207q-82 94 -186.5 141t-220.5 47q-115 0 -219.5 -47t-186.5 -141q-86 -95 -129 -209 q-43 -113 -43 -244zM647 338v836h256q156 0 238 -60q78 -57 78 -180q0 -84 -48 -141q-45 -55 -133 -74q23 -10 52 -47q39 -51 71 -111l123 -223h-154l-116 209q-53 96 -86 121q-37 27 -82 26h-60v-356h-139zM786 795h111q98 0 139 30q39 31 39 107q0 78 -41 108 q-39 31 -137 31h-111v-276z" />
<glyph unicode="&#xb4;" horiz-adv-x="919" d="M465 1262l317 376h181l-361 -376h-137z" />
<glyph unicode="&#x2000;" horiz-adv-x="817" />
<glyph unicode="&#x2001;" horiz-adv-x="1636" />
<glyph unicode="&#x2002;" horiz-adv-x="817" />
<glyph unicode="&#x2003;" horiz-adv-x="1636" />
<glyph unicode="&#x2004;" horiz-adv-x="544" />
<glyph unicode="&#x2005;" horiz-adv-x="407" />
<glyph unicode="&#x2006;" horiz-adv-x="272" />
<glyph unicode="&#x2007;" horiz-adv-x="272" />
<glyph unicode="&#x2008;" horiz-adv-x="202" />
<glyph unicode="&#x2009;" horiz-adv-x="325" />
<glyph unicode="&#x200a;" horiz-adv-x="90" />
<glyph unicode="&#x2010;" horiz-adv-x="663" d="M84 479l29 164h485l-29 -164h-485z" />
<glyph unicode="&#x2011;" horiz-adv-x="663" d="M84 479l29 164h485l-29 -164h-485z" />
<glyph unicode="&#x2012;" horiz-adv-x="663" d="M84 479l29 164h485l-29 -164h-485z" />
<glyph unicode="&#x2013;" horiz-adv-x="919" d="M78 489l24 144h742l-25 -144h-741z" />
<glyph unicode="&#x2014;" horiz-adv-x="1841" d="M78 489l24 144h1663l-24 -144h-1663z" />
<glyph unicode="&#x2018;" horiz-adv-x="583" d="M242 1001l30 173l203 319h117l-129 -319l-33 -173h-188z" />
<glyph unicode="&#x2019;" horiz-adv-x="583" d="M248 1001l131 320l31 172h188l-29 -172l-204 -320h-117z" />
<glyph unicode="&#x201c;" horiz-adv-x="952" d="M242 1001l30 173l203 319h117l-129 -319l-33 -173h-188zM610 1001l31 173l203 319h117l-130 -319l-30 -173h-191z" />
<glyph unicode="&#x201d;" horiz-adv-x="952" d="M248 1001l131 320l31 172h188l-31 -172l-202 -320h-117zM616 1001l129 320l33 172h191l-33 -172l-203 -320h-117z" />
<glyph unicode="&#x2022;" horiz-adv-x="1085" d="M276 762q0 121 78 209q77 86 191 86q111 0 188 -86q78 -88 78 -209q0 -123 -78 -211q-78 -86 -188 -86q-114 0 -191 86q-78 88 -78 211z" />
<glyph unicode="&#x2026;" horiz-adv-x="1841" d="M121 0l43 254h190l-45 -254h-188zM733 0l45 254h191l-45 -254h-191zM1350 0l43 254h190l-45 -254h-188z" />
<glyph unicode="&#x202f;" horiz-adv-x="325" />
<glyph unicode="&#x205f;" horiz-adv-x="407" />
<glyph unicode="&#x20ac;" d="M-35 520l49 123h131q2 37 11 107q0 6 18 100h-156l50 123h137q90 279 231 411q145 135 348 136q98 0 177 -35q86 -39 157 -107l-28 -213q-70 96 -152 148q-76 47 -160 47q-129 0 -227 -98q-94 -94 -160 -289h467l-47 -123h-455q-8 -35 -16 -100q-12 -102 -12 -107h399 l-47 -123h-354q10 -195 80 -293q70 -96 206 -96q98 0 185 43q84 43 178 139l-35 -239q-84 -51 -174 -76q-96 -27 -176 -27q-201 0 -320 146q-117 145 -127 403h-178z" />
<glyph unicode="&#x2122;" horiz-adv-x="1841" d="M266 1399v94h465v-94h-182v-484h-103v484h-180zM834 915v578h153l158 -256l147 256h154v-578h-103v484l-176 -303h-49l-182 303v-484h-102z" />
<glyph unicode="&#xe000;" horiz-adv-x="1120" d="M0 1120h1120v-1120h-1120v1120z" />
<glyph unicode="&#xfb01;" horiz-adv-x="1189" d="M125 0l172 977h-158l23 143h157l15 78q35 199 121 278.5t270 79.5h156l-27 -153h-158q-92 0 -131 -39q-37 -37 -59 -145l-19 -99h619l-197 -1120h-168l177 979h-455l-170 -979h-168zM975 1323l41 233h166l-41 -233h-166z" />
<glyph unicode="&#xfb02;" horiz-adv-x="1189" d="M125 0l172 977h-158l23 143h157l15 78q33 199 119 278.5t272 79.5h457l-273 -1556h-168l252 1403h-297q-92 0 -131 -39q-37 -37 -59 -145l-19 -99h273l-25 -143h-272l-170 -977h-168z" />
<glyph unicode="&#xfb03;" horiz-adv-x="1841" d="M125 0l172 977h-160l25 143h157l17 78q31 186 125 272q92 86 264 86h156l-27 -153h-160q-90 0 -131 -39q-39 -39 -57 -145l-19 -99h453l16 78q31 186 125 272q31 29 70 48q76 39 195 38h155l-26 -153h-158q-90 0 -131 -39q-41 -41 -60 -145l-18 -99h621l-195 -1120h-168 l172 977h-455l-170 -977h-168l173 977h-455l-170 -977h-168zM1597 1321l41 233h166l-39 -233h-168z" />
<glyph unicode="&#xfb04;" horiz-adv-x="1841" d="M125 0l172 977h-160l25 143h157l17 78q31 186 125 272q92 86 264 86h156l-27 -153h-160q-88 0 -129 -39q-41 -37 -59 -145l-19 -99h453l16 78q31 186 125 272q92 86 265 86h458l-270 -1556h-168l246 1403h-295q-90 0 -131 -39q-41 -37 -60 -145l-18 -99h272l-24 -143 h-273l-170 -977h-168l173 977h-455l-170 -977h-168z" />
</font>
</defs>
</svg>
